<?xml version="1.0" standalone="no"?>
<!DOCTYPE svg PUBLIC "-//W3C//DTD SVG 1.1//EN" "http://www.w3.org/Graphics/SVG/1.1/DTD/svg11.dtd" >
<svg xmlns="http://www.w3.org/2000/svg">
<metadata>Generated by IcoMoon</metadata>
<defs>
<font id="iconfont" horiz-adv-x="1024">
<font-face units-per-em="1024" ascent="960" descent="-64" />
<missing-glyph horiz-adv-x="1024" />
<glyph unicode="&#x20;" horiz-adv-x="512" d="" />
<glyph unicode="&#xe900;" glyph-name="menu" d="M85.333 661.333c0 23.564 19.103 42.667 42.667 42.667h768c23.565 0 42.667-19.103 42.667-42.667v0c0-23.564-19.102-42.667-42.667-42.667h-768c-23.564 0-42.667 19.103-42.667 42.667v0zM85.333 448c0 23.565 19.103 42.667 42.667 42.667h768c23.565 0 42.667-19.102 42.667-42.667v0c0-23.565-19.102-42.667-42.667-42.667h-768c-23.564 0-42.667 19.102-42.667 42.667v0zM85.333 234.667c0 23.565 19.103 42.667 42.667 42.667h768c23.565 0 42.667-19.102 42.667-42.667v0c0-23.565-19.102-42.667-42.667-42.667h-768c-23.564 0-42.667 19.102-42.667 42.667v0z" />
<glyph unicode="&#xe901;" glyph-name="search" d="M663.91 330.18h37.662l202.129-203.068c19.546-19.546 19.546-51.482 0-71.027s-51.486-19.546-71.031 0l-202.607 202.594v37.658l-12.873 13.346c-66.739-57.203-157.794-86.758-254.567-70.549-132.529 22.404-238.361 132.996-254.569 266.47-24.79 201.641 144.923 371.343 346.576 346.555 133.483-16.207 244.079-122.033 266.487-254.553 16.209-96.768-13.35-187.819-70.554-254.554l13.346-12.873zM201.010 544.694c0-118.697 95.821-214.51 214.525-214.51s214.524 95.812 214.524 214.51c0 118.697-95.821 214.511-214.524 214.511s-214.525-95.815-214.525-214.511z" />
<glyph unicode="&#xe902;" glyph-name="arrow-bottom" d="M904.205 550.122c16.661 16.662 16.661 43.677 0 60.34s-43.678 16.663-60.339 0l-331.87-331.869-331.864 331.866c-16.663 16.663-43.677 16.663-60.34 0s-16.662-43.677 0-60.34l362.039-362.039c0.128-0.128 0.26-0.256 0.388-0.384 0.508-0.495 1.024-0.973 1.549-1.434 16.755-14.818 42.372-14.212 58.402 1.818 0.154 0.154 0.307 0.311 0.461 0.469l361.574 361.574z" />
<glyph unicode="&#xe903;" glyph-name="check" d="M213.333 746.667c0 46.933 38.4 85.333 85.333 85.333h298.667c-26.88-35.84-42.667-79.787-42.667-128 0-117.76 95.573-213.333 213.333-213.333 14.507 0 29.013 1.28 42.667 4.267v-366.080c0-30.72-31.147-51.2-59.307-39.253l-239.36 102.4-239.36-102.4c-28.16-12.373-59.307 8.533-59.307 39.253v617.813zM941.653 817.493c16.64-16.64 16.64-43.52 0-60.16l-151.040-151.040c-16.64-16.64-43.52-16.64-60.16 0l-60.16 60.16c-16.64 16.64-16.64 43.52 0 60.16s43.52 16.64 60.16 0l30.293-30.293 120.747 120.747c16.64 17.067 43.52 17.067 60.16 0.427z" />
<glyph unicode="&#xe904;" glyph-name="distance" d="M192 567.87c0 169.615 143.086 306.797 320 306.797s320-137.182 320-306.797c0-182.765-202.057-434.775-284.8-530.758-18.287-21.039-51.657-21.039-69.943 0-83.2 95.983-285.257 347.994-285.257 530.758zM397.714 567.867c0-60.484 51.199-109.572 114.286-109.572s114.287 49.088 114.287 109.572c0 60.483-51.2 109.57-114.287 109.57s-114.286-49.088-114.286-109.57z" />
<glyph unicode="&#xe905;" glyph-name="arrow-left" d="M614.123 55.795c16.661-16.661 43.678-16.661 60.339 0s16.661 43.678 0 60.339l-331.869 331.87 331.865 331.864c16.661 16.663 16.661 43.677 0 60.34s-43.678 16.662-60.339 0l-362.039-362.039c-0.129-0.128-0.257-0.26-0.384-0.388-0.494-0.508-0.972-1.024-1.436-1.549-14.818-16.755-14.212-42.372 1.82-58.402 0.154-0.154 0.31-0.307 0.466-0.461l361.577-361.574z" />
<glyph unicode="&#xe906;" glyph-name="station" d="M773.73 801.821h-78.050v72.846h-364.231v-72.846h-78.050c-57.431 0-104.066-46.635-104.066-104.066v-301.791c0-201.173 163.058-312.196 364.233-312.196 201.169 0 364.228 111.023 364.228 312.196v301.791c0 57.431-46.635 104.066-104.064 104.066zM295.025 281.493c-28.716 0-52.033 23.317-52.033 52.032s23.317 52.032 52.033 52.032c28.716 0 52.033-23.317 52.033-52.032s-23.317-52.032-52.033-52.032zM711.287 281.493c-28.715 0-52.032 23.317-52.032 52.032s23.317 52.032 52.032 52.032c28.719 0 52.036-23.317 52.036-52.032s-23.317-52.032-52.036-52.032zM763.324 510.434c0-28.715-23.317-52.032-52.036-52.032h-416.262c-28.716 0-52.033 23.317-52.033 52.032v145.694c0 28.716 23.317 52.033 52.033 52.033h416.262c28.719 0 52.036-23.317 52.036-52.033v-145.694zM236.423 140.066c-6.764 5.397-13.105 11.123-19.252 16.977l-67.838-135.71h104.066l40.684 81.365c-20.813 10.829-40.065 23.317-57.659 37.367zM733.146 102.601c20.715 10.927 39.966 23.415 57.562 37.466 6.669 5.431 13.107 11.153 19.251 16.977l67.84-135.71h-104.068l-40.585 81.267z" />
<glyph unicode="&#xe907;" glyph-name="check-done-line" d="M759.949 23.467c31.68-13.44 66.718 9.6 66.718 44.16v411.84c-15.36-3.358-31.68-4.8-48-4.8-16.435 0-32.491 1.655-48 4.809v-340.809l-240 104.64-240-104.64v576c0 26.4 21.6 48 48 48h244.774c7.172 35.448 22.174 67.933 43.226 96h-336c-52.8 0-96-43.2-96-96v-695.040c0-34.56 35.040-58.078 66.72-44.16l269.28 115.2 269.282-115.2zM874.667 787.2c16.64-16.64 16.64-43.52 0-60.16l-151.040-151.040c-16.64-16.64-43.52-16.64-60.16 0l-60.16 60.16c-16.64 16.64-16.64 43.52 0 60.16s43.52 16.64 60.16 0l30.293-30.293 120.747 120.747c16.64 17.067 43.52 17.067 60.16 0.427z" />
<glyph unicode="&#xe908;" glyph-name="arrow-right" d="M409.878 840.205c-16.662 16.662-43.677 16.662-60.34 0s-16.663-43.677 0-60.34l331.869-331.869-331.866-331.866c-16.663-16.661-16.663-43.678 0-60.339s43.677-16.661 60.34 0l362.039 362.039c0.128 0.128 0.256 0.26 0.384 0.388 0.495 0.508 0.973 1.024 1.434 1.549 14.818 16.755 14.212 42.372-1.818 58.402-0.154 0.154-0.311 0.307-0.469 0.461l-361.574 361.575z" />
<glyph unicode="&#xe909;" glyph-name="avatar" d="M512 874.667c-235.52 0-426.667-191.147-426.667-426.667s191.147-426.667 426.667-426.667c235.52 0 426.667 191.147 426.667 426.667s-191.147 426.667-426.667 426.667zM512 746.667c70.827 0 128-57.173 128-128s-57.173-128-128-128c-70.827 0-128 57.173-128 128s57.173 128 128 128zM512 140.8c-106.667 0-200.96 54.613-256 137.387 1.28 84.907 170.667 131.413 256 131.413 84.907 0 254.72-46.507 256-131.413-55.040-82.773-149.333-137.387-256-137.387z" />
<glyph unicode="&#xe90a;" glyph-name="keep-done" d="M569.587 93.559c-32.427-29.44-82.347-29.44-114.773 0.427l-4.693 4.267c-224.002 202.667-370.348 335.36-364.802 500.907 2.56 72.533 39.68 142.080 99.84 183.040 112.64 76.8 251.735 40.96 326.828-46.933 75.093 87.893 214.187 124.16 326.827 46.933 60.16-40.96 97.28-110.507 99.84-183.040 5.973-165.547-140.8-298.24-364.8-501.76l-4.267-3.84z" />
<glyph unicode="&#xe90b;" glyph-name="keep" d="M512.009 735.266c75.093 87.893 214.187 123.733 326.827 46.933 59.733-40.96 97.28-110.080 99.84-182.613 5.547-165.547-140.8-298.24-364.8-501.333l-4.693-4.267c-32.427-29.867-82.347-29.867-114.773-0.427l-4.267 3.84-2.577 2.342c-222.548 202.197-368.173 334.507-362.223 499.418 2.56 72.96 40.107 142.080 99.84 183.040 112.64 77.227 251.733 40.96 326.826-46.933zM512.009 156.706l4.267 4.267c203.093 183.893 337.067 305.493 337.067 428.8 0 85.333-64 149.333-149.333 149.333-65.707 0-129.707-42.24-151.893-100.693h-79.787c-22.613 58.453-86.613 100.693-152.32 100.693-85.333 0-149.333-64-149.333-149.333 0-123.307 133.973-244.907 337.066-428.8l4.267-4.267z" />
<glyph unicode="&#xe90c;" glyph-name="job-watched" d="M170.667 64c-23.467 0-43.549 8.35-60.245 25.045-16.725 16.725-25.088 36.821-25.088 60.288v597.333c0 23.467 8.363 43.563 25.088 60.288 16.697 16.697 36.779 25.045 60.245 25.045h682.667c23.467 0 43.563-8.349 60.288-25.045 16.695-16.725 25.045-36.821 25.045-60.288v-597.333c0-23.467-8.35-43.563-25.045-60.288-16.725-16.695-36.821-25.045-60.288-25.045h-682.667zM170.667 149.333h682.667v597.333h-682.667v-597.333zM213.333 256c0-11.78 9.551-21.333 21.333-21.333h170.667c11.782 0 21.333 9.553 21.333 21.333v42.667c0 11.78-9.551 21.333-21.333 21.333h-170.667c-11.782 0-21.333-9.553-21.333-21.333v-42.667zM213.333 426.667c0-11.78 9.551-21.333 21.333-21.333h170.667c11.782 0 21.333 9.553 21.333 21.333v42.667c0 11.78-9.551 21.333-21.333 21.333h-170.667c-11.782 0-21.333-9.553-21.333-21.333v-42.667zM213.333 597.333c0-11.782 9.551-21.333 21.333-21.333h170.667c11.782 0 21.333 9.551 21.333 21.333v42.667c0 11.782-9.551 21.333-21.333 21.333h-170.667c-11.782 0-21.333-9.551-21.333-21.333v-42.667zM798.093 563.476c16.772-16.772 16.772-43.865 0-60.637l-152.239-152.235c-16.768-16.772-43.861-16.772-60.634 0l-60.638 60.634c-16.772 16.772-16.772 43.866 0 60.638s43.866 16.772 60.638 0l30.532-30.532 121.702 121.702c16.772 17.202 43.866 17.202 60.638 0.43z" />
<glyph unicode="&#xe90d;" glyph-name="money" d="M512 21.333c-235.642 0-426.667 191.027-426.667 426.667 0 235.642 191.025 426.667 426.667 426.667 235.639 0 426.667-191.025 426.667-426.667 0-235.639-191.027-426.667-426.667-426.667zM648.998 718.916l-136.994-176.036-136.998 176.041c-14.472 18.596-41.279 21.94-59.876 7.468s-21.94-41.279-7.468-59.876l150.274-193.101h-116.603c-23.564 0-42.667-19.102-42.667-42.667s19.102-42.667 42.667-42.667h127.999v-42.667h-127.999c-23.564 0-42.667-19.102-42.667-42.667s19.102-42.667 42.667-42.667h127.999v-106.671c0-23.561 19.102-42.667 42.667-42.667s42.667 19.106 42.667 42.667v106.671h128c23.565 0 42.667 19.102 42.667 42.667s-19.102 42.667-42.667 42.667h-128v42.667h128c23.565 0 42.667 19.102 42.667 42.667s-19.102 42.667-42.667 42.667h-116.595l150.268 193.096c14.473 18.597 11.132 45.404-7.467 59.876s-45.402 11.128-59.874-7.468z" />
<glyph unicode="&#xe90e;" glyph-name="watched" d="M535.531 831.851c-217.172 5.973-395.092-168.533-395.092-384h-76.373c-19.2 0-28.586-23.040-14.933-36.267l119.040-119.467c8.533-8.533 21.76-8.533 30.293 0l119.040 119.467c13.227 13.227 3.84 36.267-15.36 36.267h-76.373c0 166.4 135.68 300.8 302.932 298.667 158.72-2.133 292.267-135.68 294.4-294.4 2.133-166.827-132.267-302.933-298.667-302.933-68.693 0-132.265 23.467-182.612 63.147-17.067 13.227-40.96 11.947-56.32-3.413-17.92-17.92-16.64-48.213 3.413-63.573 64.853-51.2 146.345-81.493 235.519-81.493 215.467 0 389.973 177.92 384 395.093-5.547 200.107-172.8 367.36-372.907 372.907zM513.771 618.518c-17.493 0-32-14.507-32-32v-157.014c0-14.933 8.107-29.013 20.907-36.693l133.12-78.933c15.36-8.96 34.987-3.84 43.947 11.093 8.96 15.36 3.84 34.987-11.093 43.947l-122.88 72.96v145.067c0 17.067-14.507 31.573-32 31.573z" />
<glyph unicode="&#xe90f;" glyph-name="close" d="M899.029 774.692c16.661 16.662 16.661 43.677 0 60.34-16.666 16.662-43.678 16.662-60.339 0l-326.694-326.693-326.694 326.693c-16.662 16.663-43.677 16.663-60.34 0s-16.663-43.677 0-60.34l326.695-326.692-337.046-337.045c-16.662-16.661-16.662-43.678 0-60.339s43.677-16.661 60.34 0l337.045 337.045 306.871-306.876c16.666-16.661 43.678-16.661 60.343 0 16.661 16.661 16.661 43.678 0 60.339l-306.876 306.876 326.694 326.692z" />
<glyph unicode="&#xe910;" glyph-name="faq" d="M660.821 642.983v53.532c0 51.263-41.54 92.818-92.821 92.818h-389.848c-51.279 0-92.818-41.555-92.818-92.818v-290.64c0-51.264 41.54-92.817 92.818-92.817h34.187l-27.79-138.923 190.114 138.923h35.638v185.015c0 79.896 64.998 144.91 144.913 144.91h105.609zM845.85 590.886h-290.637c-51.277 0-92.821-41.555-92.821-92.82v-208.529c0-51.264 41.545-92.817 92.821-92.817h144.009l157.325-114.97-22.993 114.97h12.297c51.264 0 92.817 41.553 92.817 92.817v208.533c0 51.263-41.553 92.816-92.817 92.816z" />
<glyph unicode="&#xe911;" glyph-name="faq-question" d="M256 874.667c-94.257 0-170.667-76.41-170.667-170.667v-512c0-94.255 76.41-170.667 170.667-170.667h512c94.255 0 170.667 76.412 170.667 170.667v512c0 94.257-76.412 170.667-170.667 170.667h-512zM666.453 285.555c12.489-11.947 22.805-20.638 35.298-30.409l-43.985-46.161c-10.863 14.118-15.748 19.008-51.588 54.848-31.497-17.92-60.279-25.523-99.917-25.523-57.562 0-105.893 18.462-141.19 54.302-40.184 40.73-61.362 99.921-61.362 169.425 0 136.846 80.911 226.446 204.178 226.446 122.726 0 201.468-87.428 201.468-223.728 0-37.47-5.973-70.050-17.378-100.463-9.775-24.435-18.462-38.012-40.73-64.077l15.206-14.66zM556.22 312.162c-16.836 16.29-27.695 26.065-43.443 38.012l44.527 43.443c9.233-11.405 20.092-22.263 42.355-43.985 23.893 29.325 33.668 61.905 33.668 116.207 0 53.76-15.202 98.29-43.439 126.528-21.722 21.721-50.505 33.125-83.627 33.125-33.126 0-61.909-11.404-84.172-33.125-28.237-28.238-43.442-73.309-43.442-129.241 0-98.287 50.503-161.822 128.698-161.822 18.462 0 33.668 3.255 48.875 10.859z" />
<glyph unicode="&#xe912;" glyph-name="tag" d="M913.493 465.92l-384 384c-15.36 15.36-36.693 24.747-60.16 24.747h-298.667c-46.933 0-85.333-38.4-85.333-85.333v-298.667c0-23.467 9.387-44.8 25.173-60.587l384-384c15.36-15.36 36.693-24.747 60.16-24.747s44.8 9.387 60.16 25.173l298.667 298.667c15.787 15.36 25.173 36.693 25.173 60.16s-9.813 45.227-25.173 60.587zM234.667 661.333c-35.413 0-64 28.587-64 64s28.587 64 64 64c35.413 0 64-28.587 64-64s-28.587-64-64-64z" />
<glyph unicode="&#xe913;" glyph-name="service" d="M704 448c57.6 0 108.8 44.8 108.8 108.8s-51.2 102.4-108.8 102.4-108.8-44.8-108.8-102.4 51.2-108.8 108.8-108.8v0zM384 492.8c70.4 0 128 57.6 128 128s-57.6 128-128 128-128-57.6-128-128 57.6-128 128-128v0zM704 364.8c-76.8 0-236.8-38.4-236.8-115.2v-96h467.2v96c6.4 76.8-153.6 115.2-230.4 115.2v0zM384 403.2c-102.4 0-300.8-51.2-300.8-147.2v-108.8h300.8v96c0 38.4 12.8 102.4 102.4 147.2-38.4 12.8-76.8 12.8-102.4 12.8v0z" />
<glyph unicode="&#xe914;" glyph-name="occupation" d="M512 448c117.82 0 213.333 95.513 213.333 213.333s-95.514 213.333-213.333 213.333c-117.821 0-213.333-95.513-213.333-213.333s95.513-213.333 213.333-213.333zM298.667 362.667c-94.257 0-170.667-76.412-170.667-170.667v-128c0-23.565 19.103-42.667 42.667-42.667h682.667c23.565 0 42.667 19.102 42.667 42.667v128c0 94.255-76.412 170.667-170.667 170.667h-41.783c-13.926 0-26.97-6.793-34.957-18.197l-101.641-145.203c-16.986-24.265-52.919-24.265-69.905 0l-101.641 145.203c-7.984 11.405-21.031 18.197-34.954 18.197h-41.785z" />
<glyph unicode="&#xe915;" glyph-name="information" d="M512 874.667c-235.52 0-426.667-191.147-426.667-426.667s191.147-426.667 426.667-426.667c235.52 0 426.667 191.147 426.667 426.667s-191.147 426.667-426.667 426.667zM512 106.667c-188.16 0-341.333 153.173-341.333 341.333s153.173 341.333 341.333 341.333c188.16 0 341.333-153.173 341.333-341.333s-153.173-341.333-341.333-341.333zM511.927 590.222c31.287 0 56.887 25.6 56.887 56.889s-25.6 56.889-56.887 56.889c-31.287 0-56.887-25.6-56.887-56.889s25.6-56.889 56.887-56.889zM512 533.333c23.564 0 42.667-19.103 42.667-42.667v-256c0-23.564-19.103-42.667-42.667-42.667s-42.667 19.103-42.667 42.667v256c0 23.564 19.103 42.667 42.667 42.667z" />
<glyph unicode="&#xe916;" glyph-name="star-half" d="M512 853.333c-9.993 0-18.884-5.778-22.234-15.108l-92.158-256.899h-288.697c-9.993 0-18.908-7.146-22.232-16.453-3.323-9.329-0.359-20.599 7.411-26.819l234.285-187.248-91.801-277.521c-3.166-9.596 0.224-20.113 8.466-26.091 3.999-2.918 8.842-4.501 13.822-4.527s9.839 1.515 13.866 4.395l239.271 169.89v636.382z" />
<glyph unicode="&#xe917;" glyph-name="professional" d="M723.2 448l64 147.2 147.2 64-147.2 64-64 147.2-64-147.2-147.2-64 147.2-64 64-147.2zM460.8 396.8l-89.6 192-89.6-192-198.4-89.6 198.4-89.6 89.6-198.4 89.6 198.4 198.4 89.6-198.4 89.6z" />
<glyph unicode="&#xe918;" glyph-name="star" d="M751.27 47.066l-239.27 169.89-239.271-169.89c-4.026-2.88-8.885-4.425-13.866-4.399s-9.825 1.613-13.822 4.531c-4.017 2.927-6.996 7.023-8.515 11.703-1.519 4.685-1.502 9.715 0.049 14.387l91.779 277.495-234.263 187.25c-7.77 6.241-10.734 17.512-7.411 26.841 3.324 9.307 12.239 16.431 22.232 16.431h288.697l92.137 256.942c3.345 9.307 12.262 15.086 22.234 15.086 9.993 0 18.906-5.58 22.255-14.887l92.16-257.14h288.695c9.993 0 18.91-7.124 22.229-16.431 3.324-9.329 0.363-20.158-7.407-26.4l-234.266-187.469 91.78-277.606c3.166-9.596-0.247-20.181-8.465-26.138-3.994-2.927-8.832-4.527-13.811-4.561-4.983-0.038-9.847 1.493-13.879 4.365z" />
<glyph unicode="&#xe919;" glyph-name="violation" d="M779.447 244.062l-471.398 471.401c56.679 43.34 127.236 69.39 203.946 69.39 185.737 0 336.841-151.107 336.841-336.844 0-76.685-26.048-147.268-69.389-203.947zM175.148 448.004c0 76.71 26.049 147.267 69.39 203.946l471.401-471.398c-56.704-43.341-127.262-69.389-203.947-69.389-185.736 0-336.844 151.104-336.844 336.841zM512 874.667c-235.632 0-426.667-191.012-426.667-426.667 0-235.657 191.034-426.667 426.667-426.667 235.631 0 426.667 191.010 426.667 426.667 0 235.655-191.036 426.667-426.667 426.667z" />
<glyph unicode="&#xe91a;" glyph-name="emotion-1" d="M512 384c-86.613 0-162.133-47.36-202.667-117.333-8.107-14.080 2.56-32 18.773-32h367.787c16.213 0 26.88 17.92 18.773 32-40.533 69.973-116.053 117.333-202.667 117.333zM356.267 470.613l22.613 22.613 22.613-22.613c12.373-12.373 32.853-12.373 45.227 0s12.373 32.853 0 45.227l-22.613 22.613 22.613 22.613c12.373 12.373 12.373 32.853 0 45.227s-32.853 12.373-45.227 0l-22.613-22.613-22.613 22.613c-12.373 12.373-32.853 12.373-45.227 0s-12.373-32.853 0-45.227l22.613-22.613-22.613-22.613c-12.373-12.373-12.373-32.853 0-45.227s32.853-12.373 45.227 0zM511.573 874.667c-235.52 0-426.24-190.72-426.24-426.667s190.72-426.667 426.24-426.667c235.52 0 427.093 190.72 427.093 426.667s-191.147 426.667-427.093 426.667zM512 106.667c-188.587 0-341.333 152.747-341.333 341.333s152.747 341.333 341.333 341.333c188.587 0 341.333-152.747 341.333-341.333s-152.747-341.333-341.333-341.333zM667.733 606.293l-22.613-22.613-22.613 22.613c-12.373 12.373-32.853 12.373-45.227 0s-12.373-32.853 0-45.227l22.613-22.613-22.613-22.613c-12.373-12.373-12.373-32.853 0-45.227s32.853-12.373 45.227 0l22.613 22.613 22.613-22.613c12.373-12.373 32.853-12.373 45.227 0s12.373 32.853 0 45.227l-22.613 22.613 22.613 22.613c12.373 12.373 12.373 32.853 0 45.227s-32.853 12.373-45.227 0z" />
<glyph unicode="&#xe91b;" glyph-name="emotion-2" d="M313.6 252.587c43.52 68.693 117.333 110.080 198.4 110.080s154.88-40.96 198.827-110.080c9.387-14.933 4.693-34.56-10.24-43.947-5.547-2.987-11.093-4.693-17.067-4.693-10.667 0-21.333 5.12-27.307 14.933-31.573 50.347-85.333 80.213-144.213 80.213s-112.64-29.867-144.213-80.213c-9.387-14.933-29.013-19.627-43.947-10.24s-19.627 29.013-10.24 43.947zM362.667 490.667c35.346 0 64 28.655 64 64 0 35.346-28.654 64-64 64s-64-28.654-64-64c0-35.345 28.654-64 64-64zM661.333 490.667c35.345 0 64 28.655 64 64 0 35.346-28.655 64-64 64s-64-28.654-64-64c0-35.345 28.655-64 64-64zM85.333 448c0 235.52 190.72 426.667 426.24 426.667 235.947 0 427.093-191.147 427.093-426.667s-191.147-426.667-427.093-426.667c-235.52 0-426.24 191.147-426.24 426.667zM170.667 448c0-188.587 152.747-341.333 341.333-341.333s341.333 152.747 341.333 341.333c0 188.587-152.747 341.333-341.333 341.333s-341.333-152.747-341.333-341.333z" />
<glyph unicode="&#xe91c;" glyph-name="office" d="M812.8 876.8h-179.2c-19.2 44.8-64 83.2-121.6 83.2s-102.4-38.4-121.6-83.2h-179.2c-44.8 0-83.2-38.4-83.2-89.6v-684.8c0-44.8 38.4-83.2 83.2-83.2h595.2c44.8 0 83.2 38.4 83.2 83.2v684.8c6.4 51.2-32 89.6-76.8 89.6v0zM512 876.8c25.6 0 44.8-19.2 44.8-44.8s-19.2-44.8-44.8-44.8-44.8 19.2-44.8 44.8 19.2 44.8 44.8 44.8v0zM812.8 108.8h-601.6v678.4h83.2v-128h428.8v128h83.2v-678.4h6.4z" />
<glyph unicode="&#xe91d;" glyph-name="emotion-3" d="M362.667 490.667c35.346 0 64 28.655 64 64 0 35.346-28.654 64-64 64s-64-28.654-64-64c0-35.345 28.654-64 64-64zM725.333 554.667c0-35.345-28.655-64-64-64s-64 28.655-64 64c0 35.346 28.655 64 64 64s64-28.654 64-64zM640 330.667c0-17.493-14.507-32-32-32h-192c-17.493 0-32 14.507-32 32s14.507 32 32 32h192c17.493 0 32-14.507 32-32zM85.333 448c0 235.52 190.72 426.667 426.24 426.667 235.947 0 427.093-191.147 427.093-426.667s-191.147-426.667-427.093-426.667c-235.52 0-426.24 191.147-426.24 426.667zM170.667 448c0-188.587 152.747-341.333 341.333-341.333s341.333 152.747 341.333 341.333c0 188.587-152.747 341.333-341.333 341.333s-341.333-152.747-341.333-341.333z" />
<glyph unicode="&#xe91e;" glyph-name="emotion-4" d="M656.213 357.12c8.96 14.933 29.013 19.627 43.947 10.24s19.627-29.013 10.24-43.947c-43.52-68.693-117.333-110.080-198.4-110.080s-154.88 40.96-198.4 110.507c-9.387 14.933-4.693 34.56 10.24 43.947s34.56 4.693 43.947-10.24c31.573-50.347 85.333-80.213 144.213-80.213s112.64 29.867 144.213 79.787zM362.667 490.667c35.346 0 64 28.655 64 64 0 35.346-28.654 64-64 64s-64-28.654-64-64c0-35.345 28.654-64 64-64zM661.333 490.667c35.345 0 64 28.655 64 64 0 35.346-28.655 64-64 64s-64-28.654-64-64c0-35.345 28.655-64 64-64zM85.333 448c0 235.52 190.72 426.667 426.24 426.667 235.947 0 427.093-191.147 427.093-426.667s-191.147-426.667-427.093-426.667c-235.52 0-426.24 191.147-426.24 426.667zM170.667 448c0-188.587 152.747-341.333 341.333-341.333s341.333 152.747 341.333 341.333c0 188.587-152.747 341.333-341.333 341.333s-341.333-152.747-341.333-341.333z" />
<glyph unicode="&#xe91f;" glyph-name="emotion-5" d="M378.88 535.893l22.613-22.613c12.373-12.373 32.853-12.373 45.227 0s12.373 32.853 0 45.227l-37.547 37.547c-16.64 16.64-43.52 16.64-60.16 0l-37.973-37.547c-12.373-12.373-12.373-32.853 0-45.227s32.853-12.373 45.227 0l22.613 22.613zM512 213.333c86.613 0 162.133 47.36 202.667 117.333 8.107 14.080-2.133 32-18.773 32h-367.787c-16.213 0-26.88-17.92-18.773-32 40.533-69.973 116.053-117.333 202.667-117.333zM577.28 513.28c12.373-12.373 32.853-12.373 45.227 0l22.613 22.613 22.613-22.613c12.373-12.373 32.853-12.373 45.227 0s12.373 32.853 0 45.227l-37.547 37.547c-16.64 16.64-43.52 16.64-60.16 0l-37.547-37.547c-12.8-12.373-12.8-32.853-0.427-45.227zM511.573 874.667c-235.52 0-426.24-190.72-426.24-426.667s190.72-426.667 426.24-426.667c235.52 0 427.093 190.72 427.093 426.667s-191.147 426.667-427.093 426.667zM512 106.667c-188.587 0-341.333 152.747-341.333 341.333s152.747 341.333 341.333 341.333c188.587 0 341.333-152.747 341.333-341.333s-152.747-341.333-341.333-341.333z" />
<glyph unicode="&#xe920;" glyph-name="support-agent" d="M896 438.613c0 234.24-181.76 393.387-384 393.387-200.107 0-384-155.733-384-395.947-25.6-14.507-42.667-41.813-42.667-73.387v-85.333c0-46.933 38.4-85.333 85.333-85.333v0c23.467 0 42.667 19.2 42.667 42.667v205.227c0 163.413 125.867 306.347 289.28 311.040 168.96 5.12 308.053-130.56 308.053-298.667v-302.933h-298.667c-23.467 0-42.667-19.2-42.667-42.667v0c0-23.467 19.2-42.667 42.667-42.667h298.667c46.933 0 85.333 38.4 85.333 85.333v52.053c25.173 13.227 42.667 39.253 42.667 69.973v98.133c0 29.867-17.493 55.893-42.667 69.12zM426.667 405.333c0-23.564-19.103-42.667-42.667-42.667s-42.667 19.103-42.667 42.667c0 23.564 19.103 42.667 42.667 42.667s42.667-19.103 42.667-42.667zM682.667 405.333c0-23.564-19.103-42.667-42.667-42.667s-42.667 19.103-42.667 42.667c0 23.564 19.103 42.667 42.667 42.667s42.667-19.103 42.667-42.667zM768 489.387c-20.48 121.6-126.293 214.613-253.867 214.613-129.28 0-268.373-107.093-257.28-275.2 105.387 43.093 184.747 136.96 207.36 251.307 55.893-112.213 170.667-189.44 303.787-190.72z" />
<glyph unicode="&#xe921;" glyph-name="daily-update" d="M853.333 448.418v255.665c0 46.942-38.566 85.082-85.521 85.082h-42.756v42.751c0 23.471-19.285 42.75-42.761 42.75-23.479 0-42.761-19.28-42.761-42.75v-42.751h-340.822v42.751c0 23.471-19.284 42.75-42.76 42.75s-42.76-19.28-42.76-42.75v-42.751h-42.76c-46.533 0-85.1-38.14-85.1-85.082v-597.251c0-46.942 38.568-85.5 85.52-85.5h298.48v85.5h-298.48v426.668h596.959v-85.083h85.521zM512.209 222.583c0.755 15.104 3.405 29.453 7.561 43.046v0.755c1.515 5.286 3.785 10.193 5.675 15.1 3.401 8.687 7.185 16.614 11.341 24.546 3.405 6.042 6.43 12.083 10.59 17.365 2.645 3.776 5.67 7.177 8.695 10.953 4.54 5.662 17.771 18.88 17.771 18.88 34.031 32.094 79.407 52.105 130.074 52.105 52.181 0 100.203-21.146 134.609-55.125v26.052c0 15.859 13.235 28.698 28.74 28.698 15.501 0 28.736-13.218 28.736-28.698v-86.468c0-21.141-17.395-38.511-38.566-38.511h-86.592c-15.881 0-28.736 13.214-28.736 28.693 0 15.484 13.235 28.698 28.736 28.698h26.846c-24.196 23.787-57.852 38.515-94.148 38.515-36.301 0-66.927-13.973-91.127-36.25-24.58-23.031-40.836-55.881-42.731-92.13-1.89-39.646 14.37-75.136 40.461-100.813 24.201-23.787 57.852-38.515 94.153-38.515 61.257 0 112.299 41.156 128.559 97.041 3.405 12.083 14.746 20.011 27.226 20.011 18.906 0 33.276-17.745 27.981-35.87-23.066-80.047-96.798-139.328-184.145-139.328-20.416 0-40.081 4.151-58.607 10.193-1.135 0-18.15 6.421-21.931 8.307-6.43 3.021-12.855 6.421-18.906 10.197-3.785 2.266-7.565 4.531-10.965 7.172-6.050 4.156-11.725 9.062-17.395 13.969-2.27 1.89-6.43 5.666-6.43 5.666-37.431 37.001-60.117 88.73-57.472 145.37v0.375z" />
<glyph unicode="&#xe922;" glyph-name="end-of-publication" d="M200.966 631.057c51.606 0 93.44 41.835 93.44 93.44s-41.834 93.44-93.44 93.44c-51.605 0-93.44-41.835-93.44-93.44s41.835-93.44 93.44-93.44zM951.049 154.47l-493.653 495.786 40.533 40.533c6.827 6.827 17.92 7.253 25.173 0.853l101.547-91.307c22.613-20.48 57.6-18.347 77.653 4.267 20.48 22.613 18.347 57.6-4.267 77.653l-151.893 136.533c-17.067 15.36-61.44 20.907-80.213-3.84l-192.428-189.013c-11.947-9.813-20.053-24.32-20.48-40.96l-2.56-148.48-150.187 5.547c-30.72 1.28-56.32-22.613-57.6-52.907s22.613-55.893 52.907-57.173l204.374-7.68c0 0 0.853 0 1.707 0 0.427 0 0.853 0 1.707 0 30.293-0.427 55.466 23.893 55.893 54.187l1.28 71.253 86.188-89.6c8.96-9.387 8.96-23.893 0-32.853-35.415-35.413-115.628-115.627-116.055-116.48-8.533-8.96-14.933-22.187-16.213-35.413-2.56-30.293 20.054-57.173 50.347-59.733l257.281-22.187c30.293-2.56 57.173 20.053 59.733 50.347s-20.053 57.173-50.347 59.733l-135.253 11.52 118.613 112.64 258.56-251.733c21.333-21.333 56.32-21.333 78.080 0 21.333 21.333 21.333 56.32 0 78.080l-0.427 0.427zM892.595 712.552h-90.027c-12.019 0-21.76-9.743-21.76-21.76v-0.427c0-12.018 9.741-21.76 21.76-21.76h90.027c12.015 0 21.76 9.742 21.76 21.76v0.427c0 12.017-9.745 21.76-21.76 21.76zM981.769 608.875h-168.107c-12.019 0-21.76-9.743-21.76-21.76v-0.427c0-12.018 9.741-21.76 21.76-21.76h168.107c12.015 0 21.76 9.742 21.76 21.76v0.427c0 12.017-9.745 21.76-21.76 21.76zM892.595 505.186h-90.027c-12.019 0-21.76-9.741-21.76-21.76v-0.427c0-12.015 9.741-21.76 21.76-21.76h90.027c12.015 0 21.76 9.745 21.76 21.76v0.427c0 12.019-9.745 21.76-21.76 21.76z" />
<glyph unicode="&#xe923;" glyph-name="send" d="M145.067 89.6l744.533 319.147c34.56 14.933 34.56 63.573 0 78.507l-744.533 319.146c-28.16 12.373-59.307-8.533-59.307-38.827l-0.427-196.693c0-21.333 15.787-39.679 37.12-42.239l602.88-80.64-602.88-80.213c-21.333-2.987-37.12-21.333-37.12-42.667l0.427-196.693c0-30.293 31.147-51.2 59.307-38.827z" />
<glyph unicode="&#xe924;" glyph-name="keyword-in-left" d="M597.333 746.667h-341.333c-23.467 0-42.667-19.2-42.667-42.667v-341.333c0-23.467 19.2-42.667 42.667-42.667s42.667 19.2 42.667 42.667v238.507l464.64-464.64c16.64-16.64 43.52-16.64 60.16 0s16.64 43.52 0 60.16l-464.64 464.64h238.507c23.467 0 42.667 18.773 42.667 42.667 0 23.467-19.2 42.667-42.667 42.667z" />
<glyph unicode="&#xe925;" glyph-name="clear" d="M512 21.333c235.639 0 426.667 191.027 426.667 426.667 0 235.642-191.027 426.667-426.667 426.667-235.642 0-426.667-191.025-426.667-426.667 0-235.639 191.025-426.667 426.667-426.667zM350.383 609.617c15.621 15.621 40.948 15.621 56.568 0l105.049-105.050 105.050 105.050c15.62 15.621 40.947 15.621 56.567 0s15.62-40.948 0-56.568l-105.050-105.049 105.050-105.050c15.62-15.62 15.62-40.947 0-56.567s-40.947-15.62-56.567 0l-105.050 105.050-105.049-105.050c-15.621-15.62-40.948-15.62-56.568 0s-15.621 40.947 0 56.567l105.050 105.050-105.050 105.049c-15.621 15.621-15.621 40.948 0 56.568z" />
<glyph unicode="&#xe926;" glyph-name="close-medium" d="M512 388.267l-209.067-209.067c-7.823-7.825-17.778-11.733-29.867-11.733s-22.045 3.908-29.867 11.733c-7.823 7.821-11.733 17.775-11.733 29.867 0 12.087 3.911 22.042 11.733 29.867l209.067 209.067-209.067 209.065c-7.823 7.822-11.733 17.778-11.733 29.867s3.911 22.045 11.733 29.867c7.822 7.822 17.777 11.733 29.867 11.733s22.044-3.911 29.867-11.733l209.067-209.065 209.067 209.065c7.821 7.822 17.779 11.733 29.867 11.733s22.046-3.911 29.867-11.733c7.821-7.822 11.733-17.778 11.733-29.867s-3.913-22.045-11.733-29.867l-209.067-209.065 209.067-209.067c7.821-7.825 11.733-17.779 11.733-29.867 0-12.092-3.913-22.046-11.733-29.867-7.821-7.825-17.779-11.733-29.867-11.733s-22.046 3.908-29.867 11.733l-209.067 209.067z" />
<glyph unicode="&#xe927;" glyph-name="navigate-next" d="M537.6 448l-166.4 166.398c-7.823 7.822-11.733 17.778-11.733 29.867s3.911 22.045 11.733 29.867c7.822 7.822 17.777 11.733 29.867 11.733s22.044-3.911 29.867-11.733l196.267-196.265c4.267-4.267 7.287-8.892 9.067-13.867 1.779-4.979 2.667-10.313 2.667-16 0-5.692-0.887-11.025-2.667-16-1.779-4.979-4.8-9.6-9.067-13.867l-196.267-196.267c-7.823-7.825-17.778-11.733-29.867-11.733s-22.045 3.908-29.867 11.733c-7.823 7.821-11.733 17.775-11.733 29.867 0 12.087 3.911 22.042 11.733 29.867l166.4 166.4z" />
<glyph unicode="&#xe928;" glyph-name="stanby-logo" d="M430.938 293.291c-28.795-12.062-61.872 1.557-73.546 30.353-12.063 28.796 1.556 61.875 30.353 73.549l377.461 156.433c23.74-57.591-3.499-123.357-61.094-147.093l-273.173-113.242zM826.334 701.010c57.591 23.737 84.834 89.891 61.094 147.094l-585.65-242.432c-44.361-18.289-84.442-48.253-115.574-88.722-94.56-123.358-71.601-300.416 52.145-394.974 122.967-94.562 299.635-70.827 394.974 52.143 19.068 24.905 14.4 59.925-10.505 78.993-24.909 19.068-59.93 14.012-78.997-10.505-57.98-74.325-163.437-87.556-236.984-31.13-73.936 56.811-87.945 163.046-31.131 236.983 18.678 24.516 42.805 42.415 69.266 53.312l481.361 199.238z" />
<glyph unicode="&#xe929;" glyph-name="expand-up" d="M512 500.267l-166.4-166.4c-7.822-7.825-17.777-11.733-29.867-11.733s-22.044 3.908-29.867 11.733c-7.822 7.821-11.733 17.775-11.733 29.867 0 12.087 3.911 22.042 11.733 29.867l196.267 196.266c4.267 4.267 8.887 7.289 13.867 9.067s10.313 2.667 16 2.667c5.687 0 11.021-0.889 16-2.667s9.6-4.8 13.867-9.067l196.267-196.266c7.821-7.825 11.733-17.779 11.733-29.867 0-12.092-3.913-22.046-11.733-29.867-7.821-7.825-17.779-11.733-29.867-11.733s-22.046 3.908-29.867 11.733l-166.4 166.4z" />
<glyph unicode="&#xe92a;" glyph-name="radio-button-checked" d="M512 234.667c59.021 0 109.333 20.8 150.933 62.4s62.4 91.913 62.4 150.933c0 59.021-20.8 109.333-62.4 150.933s-91.913 62.4-150.933 62.4c-59.021 0-109.333-20.8-150.933-62.4s-62.4-91.913-62.4-150.933c0-59.021 20.8-109.333 62.4-150.933s91.913-62.4 150.933-62.4zM512 21.333c-59.021 0-114.489 11.2-166.4 33.6s-97.067 52.8-135.467 91.2c-38.4 38.4-68.8 83.554-91.2 135.467s-33.6 107.379-33.6 166.4c0 59.021 11.2 114.489 33.6 166.4s52.8 97.067 91.2 135.467c38.4 38.4 83.555 68.8 135.467 91.2s107.379 33.6 166.4 33.6c59.021 0 114.487-11.2 166.4-33.6s97.067-52.8 135.467-91.2c38.4-38.4 68.8-83.555 91.2-135.467s33.6-107.379 33.6-166.4c0-59.021-11.2-114.487-33.6-166.4s-52.8-97.067-91.2-135.467c-38.4-38.4-83.554-68.8-135.467-91.2s-107.379-33.6-166.4-33.6zM512 106.667c95.287 0 176 33.067 242.133 99.2s99.2 146.846 99.2 242.133c0 95.289-33.067 176-99.2 242.133s-146.846 99.2-242.133 99.2c-95.289 0-176-33.067-242.133-99.2s-99.2-146.845-99.2-242.133c0-95.287 33.067-176 99.2-242.133s146.845-99.2 242.133-99.2z" />
<glyph unicode="&#xe92b;" glyph-name="radio-button-unchecked" d="M512 21.333c-59.021 0-114.489 11.2-166.4 33.6s-97.067 52.8-135.467 91.2c-38.4 38.4-68.8 83.554-91.2 135.467s-33.6 107.379-33.6 166.4c0 59.021 11.2 114.489 33.6 166.4s52.8 97.067 91.2 135.467c38.4 38.4 83.555 68.8 135.467 91.2s107.379 33.6 166.4 33.6c59.021 0 114.487-11.2 166.4-33.6s97.067-52.8 135.467-91.2c38.4-38.4 68.8-83.555 91.2-135.467s33.6-107.379 33.6-166.4c0-59.021-11.2-114.487-33.6-166.4s-52.8-97.067-91.2-135.467c-38.4-38.4-83.554-68.8-135.467-91.2s-107.379-33.6-166.4-33.6zM512 106.667c95.287 0 176 33.067 242.133 99.2s99.2 146.846 99.2 242.133c0 95.289-33.067 176-99.2 242.133s-146.846 99.2-242.133 99.2c-95.289 0-176-33.067-242.133-99.2s-99.2-146.845-99.2-242.133c0-95.287 33.067-176 99.2-242.133s146.845-99.2 242.133-99.2z" />
<glyph unicode="&#xe92c;" glyph-name="expand-down" d="M512 322.133c-5.687 0-11.021 0.887-16 2.667-4.979 1.775-9.6 4.8-13.867 9.067l-196.267 196.267c-7.822 7.821-11.733 17.777-11.733 29.866s3.911 22.044 11.733 29.867c7.823 7.822 17.778 11.733 29.867 11.733s22.045-3.911 29.867-11.733l166.4-166.399 166.4 166.399c7.821 7.822 17.779 11.733 29.867 11.733s22.046-3.911 29.867-11.733c7.821-7.823 11.733-17.778 11.733-29.867s-3.913-22.045-11.733-29.866l-196.267-196.267c-4.267-4.267-8.887-7.292-13.867-9.067-4.979-1.779-10.313-2.667-16-2.667z" />
<glyph unicode="&#xe92d;" glyph-name="arrow-back" d="M407.467 447.996l313.6-313.6c10.667-10.667 15.821-23.113 15.467-37.333s-5.867-26.667-16.533-37.333c-10.667-10.667-23.113-16-37.333-16s-26.667 5.333-37.333 16l-328.533 327.467c-8.533 8.533-14.933 18.133-19.2 28.8s-6.4 21.333-6.4 32c0 10.667 2.133 21.333 6.4 32s10.667 20.267 19.2 28.8l328.533 328.533c10.667 10.667 23.287 15.822 37.867 15.467s27.2-5.867 37.867-16.533c10.667-10.667 16-23.111 16-37.333s-5.333-26.667-16-37.333l-313.6-313.6z" />
<glyph unicode="&#xe92e;" glyph-name="indeterminate-check-box" d="M341.333 405.333h341.333c12.087 0 22.221 4.087 30.4 12.267s12.267 18.313 12.267 30.4c0 12.087-4.087 22.221-12.267 30.4s-18.313 12.267-30.4 12.267h-341.333c-12.089 0-22.222-4.087-30.4-12.267s-12.267-18.313-12.267-30.4c0-12.087 4.089-22.221 12.267-30.4s18.311-12.267 30.4-12.267zM213.333 64c-23.467 0-43.555 8.354-60.267 25.067s-25.067 36.8-25.067 60.267v597.333c0 23.467 8.355 43.555 25.067 60.267s36.8 25.067 60.267 25.067h597.333c23.467 0 43.554-8.355 60.267-25.067s25.067-36.8 25.067-60.267v-597.333c0-23.467-8.354-43.554-25.067-60.267s-36.8-25.067-60.267-25.067h-597.333z" />
<glyph unicode="&#xe92f;" glyph-name="check-box" d="M452.267 388.267l-91.733 91.733c-7.822 7.821-17.778 11.733-29.867 11.733s-22.045-3.913-29.867-11.733c-7.822-7.821-11.733-17.779-11.733-29.867s3.911-22.046 11.733-29.867l121.6-121.6c8.533-8.533 18.487-12.8 29.867-12.8s21.333 4.267 29.867 12.8l241.067 241.067c7.821 7.822 11.733 17.778 11.733 29.867s-3.913 22.045-11.733 29.867c-7.821 7.822-17.779 11.733-29.867 11.733s-22.046-3.911-29.867-11.733l-211.2-211.2zM213.333 64c-23.467 0-43.555 8.354-60.267 25.067s-25.067 36.8-25.067 60.267v597.333c0 23.467 8.355 43.555 25.067 60.267s36.8 25.067 60.267 25.067h597.333c23.467 0 43.554-8.355 60.267-25.067s25.067-36.8 25.067-60.267v-597.333c0-23.467-8.354-43.554-25.067-60.267s-36.8-25.067-60.267-25.067h-597.333z" />
<glyph unicode="&#xe930;" glyph-name="arrow-forward" d="M617.6 448l-313.6 313.6c-10.667 10.667-15.822 23.289-15.467 37.867s5.867 27.2 16.533 37.867c10.667 10.667 23.289 16 37.867 16s27.2-5.333 37.867-16l327.467-328.533c8.533-8.533 14.933-18.133 19.2-28.8s6.4-21.333 6.4-32c0-10.667-2.133-21.333-6.4-32s-10.667-20.267-19.2-28.8l-328.533-328.533c-10.667-10.667-23.111-15.821-37.333-15.467s-26.667 5.867-37.333 16.533c-10.667 10.667-16 23.287-16 37.867s5.333 27.2 16 37.867l312.533 312.533z" />
<glyph unicode="&#xe931;" glyph-name="check-box-outline-blank" d="M213.333 64c-23.467 0-43.555 8.354-60.267 25.067s-25.067 36.8-25.067 60.267v597.333c0 23.467 8.355 43.555 25.067 60.267s36.8 25.067 60.267 25.067h597.333c23.467 0 43.554-8.355 60.267-25.067s25.067-36.8 25.067-60.267v-597.333c0-23.467-8.354-43.554-25.067-60.267s-36.8-25.067-60.267-25.067h-597.333zM213.333 149.333h597.333v597.333h-597.333v-597.333z" />
<glyph unicode="&#xe932;" glyph-name="double-arrow-right" d="M471.467 448l-165.334 231.467c-9.956 14.222-11.2 28.978-3.733 44.267s20.089 22.933 37.867 22.933c7.111 0 13.867-1.6 20.267-4.8s11.377-7.645 14.933-13.333l200.534-280.533-200.534-280.533c-3.556-5.687-8.533-10.133-14.933-13.333s-13.156-4.8-20.267-4.8c-17.067 0-29.511 7.646-37.333 22.933s-6.756 30.046 3.2 44.267l165.334 231.467zM725.333 448l-165.333 231.467c-9.958 14.222-11.2 28.978-3.733 44.267s20.087 22.933 37.867 22.933c7.108 0 13.867-1.6 20.267-4.8s11.375-7.645 14.933-13.333l200.533-280.533-200.533-280.533c-3.558-5.687-8.533-10.133-14.933-13.333s-13.158-4.8-20.267-4.8c-17.067 0-29.513 7.646-37.333 22.933-7.825 15.287-6.758 30.046 3.2 44.267l165.333 231.467z" />
<glyph unicode="&#xe933;" glyph-name="double-arrow-left" d="M717.867 216.533c9.941-14.208 11.008-28.971 3.2-44.288-7.808-15.275-20.267-22.912-37.333-22.912-7.125 0-13.867 1.621-20.267 4.779-6.4 3.2-11.392 7.637-14.933 13.312l-200.533 280.576 200.533 280.533c3.541 5.675 8.533 10.155 14.933 13.312 6.4 3.243 13.141 4.821 20.267 4.821 17.792 0 30.379-7.637 37.888-22.955 7.467-15.275 6.229-30.037-3.712-44.245l-165.376-231.467 165.333-231.467zM464 216.533c9.941-14.208 11.008-28.971 3.2-44.288s-20.267-22.912-37.333-22.912c-7.126 0-13.867 1.621-20.267 4.821s-11.392 7.637-14.933 13.312l-200.533 280.533 200.533 280.533c3.541 5.675 8.533 10.155 14.933 13.312 6.4 3.243 13.141 4.821 20.267 4.821 17.792 0 30.379-7.637 37.845-22.955 7.467-15.275 6.229-30.037-3.712-44.245l-165.334-231.467 165.334-231.467z" />
<glyph unicode="&#xe934;" glyph-name="filter" d="M512 64c-12.087 0-22.221 4.087-30.4 12.267s-12.267 18.313-12.267 30.4v170.667c0 12.087 4.087 22.221 12.267 30.4s18.313 12.267 30.4 12.267c12.087 0 22.221-4.087 30.4-12.267s12.267-18.313 12.267-30.4v-42.667h298.667c12.087 0 22.221-4.087 30.4-12.267s12.267-18.313 12.267-30.4c0-12.087-4.087-22.221-12.267-30.4s-18.313-12.267-30.4-12.267h-298.667v-42.667c0-12.087-4.087-22.221-12.267-30.4s-18.313-12.267-30.4-12.267zM170.667 149.333c-12.089 0-22.222 4.087-30.4 12.267s-12.267 18.313-12.267 30.4c0 12.087 4.089 22.221 12.267 30.4s18.311 12.267 30.4 12.267h170.667c12.089 0 22.222-4.087 30.4-12.267s12.267-18.313 12.267-30.4c0-12.087-4.089-22.221-12.267-30.4s-18.311-12.267-30.4-12.267h-170.667zM341.333 320c-12.089 0-22.222 4.087-30.4 12.267s-12.267 18.313-12.267 30.4v42.667h-128c-12.089 0-22.222 4.087-30.4 12.267s-12.267 18.313-12.267 30.4c0 12.087 4.089 22.221 12.267 30.4s18.311 12.267 30.4 12.267h128v42.667c0 12.089 4.089 22.222 12.267 30.4s18.311 12.267 30.4 12.267c12.089 0 22.222-4.089 30.4-12.267s12.267-18.311 12.267-30.4v-170.667c0-12.087-4.089-22.221-12.267-30.4s-18.311-12.267-30.4-12.267zM512 405.333c-12.087 0-22.221 4.087-30.4 12.267s-12.267 18.313-12.267 30.4c0 12.087 4.087 22.221 12.267 30.4s18.313 12.267 30.4 12.267h341.333c12.087 0 22.221-4.087 30.4-12.267s12.267-18.313 12.267-30.4c0-12.087-4.087-22.221-12.267-30.4s-18.313-12.267-30.4-12.267h-341.333zM682.667 576c-12.087 0-22.221 4.089-30.4 12.267s-12.267 18.311-12.267 30.4v170.667c0 12.089 4.087 22.222 12.267 30.4s18.313 12.267 30.4 12.267c12.087 0 22.221-4.089 30.4-12.267s12.267-18.311 12.267-30.4v-42.667h128c12.087 0 22.221-4.089 30.4-12.267s12.267-18.311 12.267-30.4c0-12.089-4.087-22.222-12.267-30.4s-18.313-12.267-30.4-12.267h-128v-42.667c0-12.089-4.087-22.222-12.267-30.4s-18.313-12.267-30.4-12.267zM170.667 661.333c-12.089 0-22.222 4.089-30.4 12.267s-12.267 18.311-12.267 30.4c0 12.089 4.089 22.222 12.267 30.4s18.311 12.267 30.4 12.267h341.333c12.087 0 22.221-4.089 30.4-12.267s12.267-18.311 12.267-30.4c0-12.089-4.087-22.222-12.267-30.4s-18.313-12.267-30.4-12.267h-341.333z" />
<glyph unicode="&#xe935;" glyph-name="search-history" d="M256 575.998h-128c-23.467 0-42.667 19.2-42.667 42.667s19.2 42.667 42.667 42.667h128c23.467 0 42.667-19.2 42.667-42.667s-19.2-42.667-42.667-42.667zM256 448h-128c-23.467 0-42.667-19.2-42.667-42.667s19.2-42.667 42.667-42.667h128c23.467 0 42.667 19.2 42.667 42.667s-19.2 42.667-42.667 42.667zM848.213 179.627l-133.12 133.12c-36.693-23.893-80.64-37.547-128-34.987-101.12 4.693-187.733 83.627-201.387 183.893-18.773 142.932 104.533 263.678 248.747 239.358 83.2-14.080 152.32-78.934 170.667-161.28 14.080-62.292 0.427-120.318-29.867-166.398l133.547-133.547c16.64-16.64 16.64-43.52 0-60.16s-43.947-16.64-60.587 0zM725.333 490.667c0 70.398-57.6 127.998-128 127.998s-128-57.6-128-127.998c0-70.4 57.6-128 128-128s128 57.6 128 128zM128 149.333h341.333c23.467 0 42.667 19.2 42.667 42.667s-19.2 42.667-42.667 42.667h-341.333c-23.467 0-42.667-19.2-42.667-42.667s19.2-42.667 42.667-42.667z" />
<glyph unicode="&#xe936;" d="M512 21.333c-59.021 0-114.489 11.2-166.4 33.6s-97.067 52.8-135.467 91.2c-38.4 38.4-68.8 83.554-91.2 135.467s-33.6 107.379-33.6 166.4c0 59.021 11.2 114.489 33.6 166.4s52.8 97.067 91.2 135.467c38.4 38.4 83.555 68.8 135.467 91.2s107.379 33.6 166.4 33.6c59.021 0 114.487-11.2 166.4-33.6s97.067-52.8 135.467-91.2c38.4-38.4 68.8-83.555 91.2-135.467s33.6-107.379 33.6-166.4c0-59.021-11.2-114.487-33.6-166.4s-52.8-97.067-91.2-135.467c-38.4-38.4-83.554-68.8-135.467-91.2s-107.379-33.6-166.4-33.6z" />
<glyph unicode="&#xe937;" d="M469.333 405.333v-128c0-12.087 4.087-22.221 12.267-30.4s18.313-12.267 30.4-12.267c12.087 0 22.221 4.087 30.4 12.267s12.267 18.313 12.267 30.4v128h128c12.087 0 22.221 4.087 30.4 12.267s12.267 18.313 12.267 30.4c0 12.087-4.087 22.221-12.267 30.4s-18.313 12.267-30.4 12.267h-128v128c0 12.089-4.087 22.222-12.267 30.4s-18.313 12.267-30.4 12.267c-12.087 0-22.221-4.089-30.4-12.267s-12.267-18.311-12.267-30.4v-128h-128c-12.089 0-22.222-4.087-30.4-12.267s-12.267-18.313-12.267-30.4c0-12.087 4.089-22.221 12.267-30.4s18.311-12.267 30.4-12.267h128zM512 21.333c-59.021 0-114.489 11.2-166.4 33.6s-97.067 52.8-135.467 91.2c-38.4 38.4-68.8 83.554-91.2 135.467s-33.6 107.379-33.6 166.4c0 59.021 11.2 114.489 33.6 166.4s52.8 97.067 91.2 135.467c38.4 38.4 83.555 68.8 135.467 91.2s107.379 33.6 166.4 33.6c59.021 0 114.487-11.2 166.4-33.6s97.067-52.8 135.467-91.2c38.4-38.4 68.8-83.555 91.2-135.467s33.6-107.379 33.6-166.4c0-59.021-11.2-114.487-33.6-166.4s-52.8-97.067-91.2-135.467c-38.4-38.4-83.554-68.8-135.467-91.2s-107.379-33.6-166.4-33.6z" />
<glyph unicode="&#xe938;" glyph-name="mypage" d="M512 448c117.82 0 213.333 95.513 213.333 213.333s-95.514 213.333-213.333 213.333c-117.821 0-213.333-95.513-213.333-213.333s95.513-213.333 213.333-213.333zM298.667 362.667c-94.257 0-170.667-76.412-170.667-170.667v-128c0-23.565 19.103-42.667 42.667-42.667h682.667c23.565 0 42.667 19.102 42.667 42.667v128c0 94.255-76.412 170.667-170.667 170.667h-426.667z" />
<glyph unicode="&#xe939;" glyph-name="calendar" d="M682.667 490.667h-341.333c-23.467 0-42.667-19.2-42.667-42.667s19.2-42.667 42.667-42.667h341.333c23.467 0 42.667 19.2 42.667 42.667s-19.2 42.667-42.667 42.667zM810.667 789.333h-42.667v42.667c0 23.467-19.2 42.667-42.667 42.667s-42.667-19.2-42.667-42.667v-42.667h-341.333v42.667c0 23.467-19.2 42.667-42.667 42.667s-42.667-19.2-42.667-42.667v-42.667h-42.667c-47.36 0-85.333-38.4-85.333-85.333v-597.333c0-46.933 37.973-85.333 85.333-85.333h597.333c46.933 0 85.333 38.4 85.333 85.333v597.333c0 46.933-38.4 85.333-85.333 85.333zM768 106.667h-512c-23.467 0-42.667 19.2-42.667 42.667v426.667h597.333v-426.667c0-23.467-19.2-42.667-42.667-42.667zM554.667 320h-213.333c-23.467 0-42.667-19.2-42.667-42.667s19.2-42.667 42.667-42.667h213.333c23.467 0 42.667 19.2 42.667 42.667s-19.2 42.667-42.667 42.667z" />
<glyph unicode="&#xe93a;" glyph-name="location-search" d="M893.44 490.667h45.227c23.467 0 42.667-19.2 42.667-42.667s-19.2-42.667-42.667-42.667h-45.227c-19.627-177.92-160.853-319.147-338.773-338.773v-45.227c0-23.467-19.2-42.667-42.667-42.667s-42.667 19.2-42.667 42.667v45.227c-177.92 19.627-319.147 160.853-338.773 338.773h-45.227c-23.467 0-42.667 19.2-42.667 42.667s19.2 42.667 42.667 42.667h45.227c19.627 177.92 160.853 319.147 338.773 338.773v45.227c0 23.467 19.2 42.667 42.667 42.667s42.667-19.2 42.667-42.667v-45.227c177.92-19.627 319.147-160.853 338.773-338.773zM512 618.667c94.293 0 170.667-76.373 170.667-170.667s-76.373-170.667-170.667-170.667c-94.293 0-170.667 76.373-170.667 170.667s76.373 170.667 170.667 170.667zM213.333 448c0-165.12 133.547-298.667 298.667-298.667s298.667 133.547 298.667 298.667c0 165.12-133.547 298.667-298.667 298.667s-298.667-133.547-298.667-298.667z" />
<glyph unicode="&#xe93b;" glyph-name="delete" d="M512 874.667c-236.613 0-426.667-190.054-426.667-426.667s190.054-426.667 426.667-426.667c236.612 0 426.667 190.054 426.667 426.667s-190.054 426.667-426.667 426.667zM768 448c0-23.565-19.102-42.667-42.667-42.667h-426.667c-23.564 0-42.667 19.102-42.667 42.667v0c0 23.565 19.103 42.667 42.667 42.667h426.667c23.565 0 42.667-19.102 42.667-42.667v0z" />
<glyph unicode="&#xe93c;" glyph-name="arrow-up" d="M119.795 345.877c-16.662-16.661-16.662-43.678 0-60.339s43.677-16.661 60.34 0l331.869 331.872 331.866-331.863c16.666-16.666 43.678-16.666 60.343 0 16.661 16.661 16.661 43.674 0 60.339l-362.039 362.037c-16.661 16.663-43.678 16.663-60.339 0-0.154-0.154-0.307-0.309-0.461-0.465l-361.579-361.581z" />
<glyph unicode="&#xe93d;" glyph-name="success-check" d="M512 874.667c-235.52 0-426.667-191.147-426.667-426.667s191.147-426.667 426.667-426.667c235.52 0 426.667 191.147 426.667 426.667s-191.147 426.667-426.667 426.667zM512 106.667c-188.16 0-341.333 153.173-341.333 341.333s153.173 341.333 341.333 341.333c188.16 0 341.333-153.173 341.333-341.333s-153.173-341.333-341.333-341.333zM738.027 606.186c-16.653 16.772-43.767 16.82-60.48 0.107l-244.86-244.86c-3.328-3.328-8.72-3.332-12.054-0.009l-74.364 74.074c-16.638 16.576-43.554 16.55-60.16-0.055v0c-16.629-16.631-16.629-43.588 0-60.22l110.388-110.387c16.663-16.661 43.678-16.661 60.34 0l281.084 281.084c16.631 16.63 16.678 43.578 0.107 60.266v0z" />
<glyph unicode="&#xe93e;" glyph-name="clock" d="M512 21.333c235.639 0 426.667 191.027 426.667 426.667 0 235.642-191.027 426.667-426.667 426.667-235.642 0-426.667-191.025-426.667-426.667 0-235.639 191.025-426.667 426.667-426.667zM448 682.667c0 35.346 28.655 64 64 64s64-28.654 64-64v-198.601l154.846-89.399c30.609-17.673 41.097-56.815 23.424-87.424-17.673-30.613-56.815-41.101-87.424-23.428l-184.751 106.667c-5.517 3.187-10.381 7.070-14.545 11.473-12.053 11.639-19.55 27.968-19.55 46.046v234.667z" />
<glyph unicode="&#xe93f;" glyph-name="global" d="M512 874.667c-235.668 0-426.667-190.97-426.667-426.667 0-235.695 190.97-426.667 426.667-426.667 235.669 0 426.667 190.972 426.667 426.667s-190.972 426.667-426.667 426.667v0zM128.020 429.7h162.531c2.039-60.954 8.13-121.911 20.31-162.53h-138.144c-26.4 40.649-42.658 101.577-44.698 162.53v0zM522.167 673.527v158.481c60.958-12.18 107.695-77.215 138.146-158.481h-138.146zM672.491 632.881c12.181-60.957 20.309-101.574 22.349-162.532h-172.698v162.532h150.349zM481.523 831.98v-158.481h-117.836c30.478 81.266 77.217 144.262 117.836 158.481zM481.523 632.881v-162.532h-152.393c2.039 60.958 10.169 101.575 22.349 162.532h130.044zM288.512 470.349h-162.532c4.051 60.958 18.298 101.575 44.698 162.532h138.144c-12.18-60.957-18.298-101.574-20.309-162.532zM329.159 429.7h152.39v-162.53h-130.041c-12.18 40.649-20.309 101.577-22.349 162.53v0zM481.523 226.551v-162.53c-40.649 12.177-87.357 81.263-117.836 162.53h117.836zM522.167 64.021v162.53h138.146c-30.481-81.267-77.218-148.314-138.146-162.53v0zM522.167 267.17v162.53h172.702c-2.039-60.954-10.167-121.911-22.349-162.53h-150.353zM735.488 429.7h162.53c-4.049-60.954-18.295-121.911-44.698-162.53h-138.142c12.181 40.649 18.3 101.577 20.309 162.53v0zM735.488 470.349c-2.039 60.958-8.128 101.575-20.309 162.532h138.142c26.402-60.957 42.658-101.574 44.698-162.532h-162.53zM826.923 673.527h-123.925c-18.295 60.956-44.698 109.705-77.214 146.273 81.267-26.4 152.393-85.344 201.139-146.273zM398.217 819.8c-32.518-34.529-58.917-85.344-77.215-146.273h-123.924c48.748 60.956 119.873 119.873 201.139 146.273zM197.077 226.551h123.924c18.298-60.958 44.698-109.705 77.215-146.274-81.266 26.402-152.391 85.346-201.139 146.274v0zM625.783 80.252c32.516 34.526 58.918 85.342 77.214 146.27h123.925c-48.747-60.954-119.872-119.872-201.139-146.27z" />
<glyph unicode="&#xe940;" glyph-name="memo-search" d="M240.709 719.289h77.511v-116.267h387.555v116.267h77.513v-155.023c0-21.404 17.353-38.754 38.754-38.754 21.406 0 38.754 17.35 38.754 38.754v155.023c0 42.631-34.876 77.511-77.508 77.511h-161.997c-16.282 44.957-58.91 77.511-109.291 77.511-50.385 0-93.015-32.555-109.293-77.511h-161.998c-42.631 0-77.511-34.88-77.511-77.511v-542.577c0-42.633 34.88-77.513 77.511-77.513h155.022c21.404 0 38.756 17.353 38.756 38.754 0 21.406-17.352 38.758-38.756 38.758h-155.022v542.577zM512 796.8c21.312 0 38.754-17.44 38.754-38.755s-17.442-38.755-38.754-38.755c-21.316 0-38.758 17.44-38.758 38.755s17.442 38.755 38.758 38.755zM833.668 180.587c15.501 27.127 27.127 58.133 27.127 93.013 0 96.887-77.508 174.4-174.396 174.4-96.892 0-174.4-77.513-174.4-174.4s77.508-174.4 174.4-174.4c34.88 0 65.882 11.627 93.009 27.127l77.513-77.508c14.985-14.985 39.275-14.985 54.259 0 14.98 14.98 14.98 39.275 0 54.255l-77.513 77.513zM686.4 176.713c-54.259 0-96.892 42.628-96.892 96.887s42.633 96.887 96.892 96.887c54.255 0 96.887-42.628 96.887-96.887s-42.633-96.887-96.887-96.887z" />
<glyph unicode="&#xe941;" glyph-name="new-window" d="M135.755 205.577v575.999c0 23.467 19.2 42.667 42.667 42.667h341.335c23.467 0 42.667-19.2 42.667-42.667s-19.2-42.667-42.667-42.667h-298.668v-597.332h597.331v298.667c0 23.467 19.2 42.667 42.667 42.667s42.667-19.2 42.667-42.667v-341.333c0-23.467-19.2-42.667-42.667-42.667h-682.664c-23.467 0-42.667 19.2-42.667 42.667v106.667zM745.89 726.109l-61.867 61.867c-13.227 13.227-3.84 36.267 15.36 36.267h183.040c11.947 0 21.333-9.387 21.333-21.333v-183.040c0-19.2-23.040-28.587-36.267-15.36l-61.867 61.867-220.16-221.012c-16.64-16.64-43.947-16.64-60.587 0s-16.64 43.947 0 60.587l221.013 220.159z" />
<glyph unicode="&#xe942;" glyph-name="telephone" d="M820.48 308.907l-108.373 12.373c-26.027 2.987-51.627-5.973-69.973-24.32l-78.507-78.507c-120.747 61.44-219.732 160-281.172 281.173l78.933 78.933c18.347 18.347 27.307 43.947 24.32 69.973l-12.373 107.52c-5.12 43.093-41.387 75.52-84.907 75.52h-73.813c-48.213 0-88.32-40.107-85.333-88.32 22.613-364.373 314.025-655.36 677.972-677.973 48.213-2.987 88.32 37.12 88.32 85.333v73.813c0.427 43.093-32 79.36-75.093 84.48v0z" />
<glyph unicode="&#xe943;" glyph-name="mail" d="M853.333 789.333h-682.667c-46.933 0-84.907-38.4-84.907-85.333l-0.427-512c0-46.933 38.4-85.333 85.333-85.333h682.667c46.933 0 85.333 38.4 85.333 85.333v512c0 46.933-38.4 85.333-85.333 85.333zM853.333 192h-682.667v426.667l341.333-213.333 341.333 213.333v-426.667zM512 490.667l-341.333 213.333h682.667l-341.333-213.333z" />
<glyph unicode="&#xe944;" glyph-name="map" d="M615.842 656.75c0-96.817-166.938-340.837-175.253-340.837-8.311 0-175.281 244.020-175.281 340.837 0 96.755 78.464 175.25 175.281 175.25 96.819 0 175.253-78.496 175.253-175.25zM440.559 723.763c-37.021 0-67.045-29.993-67.045-67.044s30.024-67.076 67.045-67.044c37.022 0 67.042 30.024 67.042 67.044s-30.020 67.044-67.042 67.044zM938.325 87.266l-14.494 31.876-150.908 332.459h-210.449c-1.003-1.758-1.946-3.452-2.918-5.175-1.788-3.2-3.546-6.34-5.491-9.664-8.094-13.867-15.59-26.415-22.558-37.773h116.429l-0.222-0.222c1.946-1.882 5.585-8.687 7.531-17.66l25.63 5.833c-1.003 4.267-2.257 8.222-3.669 12.049h61.837l120.034-264.414h-330.799l21.995 3.422-0.034 0.218v0.064c-0.188 1.57-1.161 9.003-1.161 19.482 0 1.225 0.034 2.479 0.034 3.797v0.375l-26.291 0.597c-0.064-1.634-0.064-3.2-0.064-4.77 0-12.173 1.097-20.83 1.412-23.151h-158.184c0.407 4.297 0.69 8.499 0.753 12.642l-26.29 0.375c-0.063-4.173-0.377-8.533-0.879-12.988h-174.654l64.535 142.153c3.859-1.289 8.784-3.14 14.494-5.521l10.29 24.154c-5.271 2.227-9.882 4.019-13.867 5.431l44.581 98.163h64.754c-6.933 11.358-14.432 23.906-22.557 37.773-1.945 3.328-3.734 6.494-5.49 9.664-0.941 1.694-1.914 3.422-2.918 5.175h-67.671l-165.399-364.335c-0.533-1.161-0.408-2.509 0.251-3.575 0.69-1.037 1.882-1.664 3.137-1.664h845.883c1.284 0 2.445 0.627 3.136 1.664 0.691 1.097 0.785 2.385 0.252 3.546zM642.539 310.485c9.758 13.743 14.148 30.276 14.81 45.773l26.291-1.097c-0.849-19.516-6.34-40.973-19.61-59.861l-21.491 15.185zM641.378 272.367l-15.497 21.239c-7.125-5.21-15.812-9.63-26.449-12.958-8.567-2.667-16.316-6.084-23.215-10.197l13.457-22.588c5.082 3.012 10.889 5.649 17.536 7.718 13.239 4.049 24.597 9.852 34.197 16.815l-0.030-0.030zM571.635 232.525l-20.109 16.973c-14.746-17.54-21.995-38.182-25.57-56.883l25.822-4.894c2.978 15.718 9.033 31.97 19.857 44.804zM364.291 175.893c-3.859 20.331-12.047 37.867-22.432 52.706l-21.522-15.087c8.534-12.173 14.996-26.167 18.134-42.543l25.82 4.924zM266.030 260.382l12.832 22.933c14.557-8.158 30.369-18.948 44.675-33.037l-18.511-18.697c-12.079 11.985-25.977 21.521-38.996 28.8z" />
<glyph unicode="&#xe945;" glyph-name="warning" d="M512.017 766.663l-362.201-637.268h724.445l-362.244 637.268zM456.286 799.322c24.764 43.571 86.665 43.571 111.467 0l362.202-637.27c24.764-43.571-6.208-98.052-55.731-98.052h-724.445c-49.523 0-80.494 54.481-55.732 98.052l362.24 637.27zM496.555 309.675c-3.315 3.366-5.333 8.282-5.982 14.703l-18.441 197.035-0.495 5.073c0 10.484 3.507 18.726 10.479 24.801 7.313 6.423 16.457 9.635 27.426 9.635 11.618 0 21.103-3.715 28.42-11.145 7.313-7.081 10.321-16.717 8.99-28.864l-18.441-196.535c-0.644-6.421-2.816-11.298-6.473-14.703-3.315-3.366-7.467-5.069-12.459-5.069s-9.293 1.702-12.954 5.069h-0.073zM483.068 208.875c-6.972 7.428-10.475 16.563-10.475 27.358s3.503 19.733 10.475 26.854c6.972 7.428 15.77 11.145 26.436 11.145s19.469-3.716 26.441-11.145c6.967-7.083 10.475-16.060 10.475-26.854s-3.507-19.93-10.475-27.358c-6.972-7.083-15.812-10.641-26.441-10.641s-19.465 3.558-26.436 10.641v0z" />
<glyph unicode="&#xe946;" glyph-name="success-check-fill" d="M512 21.333c235.639 0 426.667 191.027 426.667 426.667 0 235.642-191.027 426.667-426.667 426.667-235.642 0-426.667-191.025-426.667-426.667 0-235.639 191.025-426.667 426.667-426.667zM677.547 631.040c16.713 16.713 43.827 16.665 60.48-0.107 16.572-16.689 16.525-43.636-0.107-60.266l-281.084-281.084c-16.661-16.661-43.677-16.661-60.34 0l-110.388 110.387c-16.629 16.631-16.629 43.588 0 60.22 16.606 16.606 43.522 16.631 60.16 0.055l74.364-74.074c3.334-3.324 8.73-3.315 12.054 0.009l244.86 244.86z" />
<glyph unicode="&#xe947;" glyph-name="shield" d="M448 405.333h-106.667v128h106.667v106.667h128v-106.667h106.667v-128h-106.667v-106.667h-128v106.667zM512 874.667l-341.333-128v-259.84c0-215.467 145.493-416.427 341.333-465.493 195.84 49.067 341.333 250.027 341.333 465.493v259.84l-341.333 128z" />
<glyph unicode="&#xe948;" glyph-name="building" d="M725.333 490.667v256c0 46.933-38.4 85.333-85.333 85.333h-256c-46.933 0-85.333-38.4-85.333-85.333v-85.333h-85.333c-46.933 0-85.333-38.4-85.333-85.333v-426.667c0-46.933 38.4-85.333 85.333-85.333h213.333c23.467 0 42.667 19.2 42.667 42.667v128h85.333v-128c0-23.467 19.2-42.667 42.667-42.667h213.333c46.933 0 85.333 38.4 85.333 85.333v256c0 46.933-38.4 85.333-85.333 85.333h-85.333zM298.667 149.333h-85.333v85.333h85.333v-85.333zM298.667 320h-85.333v85.333h85.333v-85.333zM298.667 490.667h-85.333v85.333h85.333v-85.333zM469.333 320h-85.333v85.333h85.333v-85.333zM469.333 490.667h-85.333v85.333h85.333v-85.333zM469.333 661.333h-85.333v85.333h85.333v-85.333zM640 320h-85.333v85.333h85.333v-85.333zM640 490.667h-85.333v85.333h85.333v-85.333zM640 661.333h-85.333v85.333h85.333v-85.333zM810.667 149.333h-85.333v85.333h85.333v-85.333zM810.667 320h-85.333v85.333h85.333v-85.333z" />
<glyph unicode="&#xe949;" glyph-name="bag" d="M298.667 746.667c0 47.128 38.205 85.333 85.333 85.333h256c47.13 0 85.333-38.205 85.333-85.333v-85.333h-85.333v85.333h-256v-85.333h-85.333v85.333zM170.667 661.331c-23.564 0-42.667-19.102-42.667-42.667v-127.998h341.333v42.667c0 23.564 19.102 42.667 42.667 42.667s42.667-19.102 42.667-42.667v-42.667h341.333v127.998c0 23.564-19.102 42.667-42.667 42.667h-682.667zM469.333 448v-42.667c0-23.565 19.102-42.667 42.667-42.667s42.667 19.102 42.667 42.667v42.667h341.333v-298.667c0-23.565-19.102-42.667-42.667-42.667h-682.667c-23.564 0-42.667 19.102-42.667 42.667v298.667h341.333z" />
<glyph unicode="&#xe94a;" glyph-name="plus" d="M874.667 512h-725.333c-34.133 0-64-29.867-64-64s29.867-64 64-64h725.333c34.133 0 64 29.867 64 64s-29.867 64-64 64zM448 810.667v-725.333c0-34.133 29.867-64 64-64s64 29.867 64 64v725.333c0 34.133-29.867 64-64 64s-64-29.867-64-64z" />
<glyph unicode="&#xe94b;" glyph-name="no-smoke" d="M106.667 712.127l283.328-284.445h-283.328v-121.903h404.928l283.733-284.446 51.072 50.795-689.067 690.793-50.667-50.793zM856.533 427.682h60.8v-121.903h-60.8v121.903zM755.2 427.682h60.8v-121.903h-60.8v121.903zM789.653 757.638c25.131 24.788 40.533 58.921 40.533 96.711h-60.8c0-41.448-33.643-75.175-74.987-75.175v-60.952c90.795 0 162.133-74.362 162.133-165.384v-84.52h60.8v84.52c0 90.616-51.883 168.635-127.68 204.8zM613.333 602.413h62.016c42.56 0 79.851-30.070 79.851-83.3v-50.795h60.8v64.61c0 73.142-64.853 128.405-140.651 128.405h-62.016c-41.344 0-74.987 39.822-74.987 81.27s33.643 71.111 74.987 71.111v60.952c-74.987 0-135.787-60.952-135.787-136.127s60.8-136.127 135.787-136.127zM714.667 308.621v119.061h-118.763l118.763-119.061z" />
<glyph unicode="&#xe94c;" glyph-name="minus" d="M874.667 512h-725.333c-34.133 0-64-29.867-64-64s29.867-64 64-64h725.333c34.133 0 64 29.867 64 64s-29.867 64-64 64z" />
<glyph unicode="&#xe94d;" glyph-name="japan" d="M896 874.667h-213.333c-25.6 0-42.667-21.333-42.667-42.667v-128c0-25.6 21.333-42.667 42.667-42.667h213.333c25.6 0 42.667 21.333 42.667 42.667v128c0 21.333-21.333 42.667-42.667 42.667zM896 618.667h-213.333c-25.6 0-42.667-21.333-42.667-42.667v-260.267h-260.266c-25.6 0-42.667-21.333-42.667-42.667v-42.667c0-25.6 21.333-42.667 42.667-42.667h170.666v-128c0-25.6 21.333-42.667 42.667-42.667h170.667c25.6 0 42.667 21.333 42.667 42.667v89.6h89.6c25.6 0 42.667 21.333 42.667 42.667v384c0 25.6-21.333 42.667-42.667 42.667zM465.067 145.067h-85.332c-25.6 0-42.667-21.333-42.667-42.667v-42.667c0-25.6 21.333-42.667 42.667-42.667h85.332c25.6 0 42.667 21.333 42.667 42.667v42.667c0 21.333-17.067 42.667-42.667 42.667zM256 315.733h-128c-25.6 0-42.667-21.333-42.667-42.667v-213.333c0-25.6 21.333-42.667 42.667-42.667h128c25.6 0 42.667 21.333 42.667 42.667v213.333c0 21.333-21.333 42.667-42.667 42.667z" />
<glyph unicode="&#xe94e;" glyph-name="heart-present" d="M673.028 478.989c17.562-16.179 44.604-16.179 62.165-0.23l2.313 2.078 1.395 1.271c120.55 109.523 199.428 181.19 196.207 270.517-1.387 39.289-21.495 76.96-54.080 99.147-61.013 41.831-136.358 22.187-177.033-25.423-40.674 47.609-116.019 67.023-177.033 25.423-32.585-22.187-52.693-59.858-54.080-99.147-3.004-89.671 76.267-161.547 197.602-271.324l2.543-2.313zM216.887 487.113h-71.111c-23.564 0-42.667-19.106-42.667-42.667v-344.892c0-23.565 19.102-42.667 42.667-42.667h71.111c23.564 0 42.667 19.102 42.667 42.667v344.892c0 23.561-19.102 42.667-42.667 42.667zM846.221 252.446h-273.779l-63.573 22.204c-10.031 3.503-15.313 14.481-11.793 24.503 3.58 10.197 14.861 15.437 24.964 11.588l43.072-16.393c4.847-1.847 9.988-2.795 15.177-2.795h102.447c25.425 0 46.153 20.732 46.153 46.153 0 19.166-12.126 36.373-30.114 43.413l-262.298 97.907c-14.318 5.346-29.478 8.085-44.762 8.085h-11.271c-23.564 0-42.667-19.106-42.667-42.667v-277.845c0-19.093 12.683-35.861 31.054-41.054l229.254-64.849c8.751-2.475 18.061-2.091 26.577 1.101l272.201 101.948c16.794 6.289 28.915 22.985 22.153 39.595-11.695 28.71-39.753 49.105-72.794 49.105z" />
<glyph unicode="&#xe94f;" glyph-name="middle-dot" d="M512 149.333c-83.2 0-153.778 28.979-211.733 86.933s-86.933 128.533-86.933 211.733c0 83.2 28.978 153.778 86.933 211.733s128.533 86.933 211.733 86.933c83.2 0 153.779-28.978 211.733-86.933s86.933-128.533 86.933-211.733c0-83.2-28.979-153.779-86.933-211.733s-128.533-86.933-211.733-86.933z" />
<glyph unicode="&#xe950;" glyph-name="fire" d="M649.007 700.317c-57.6 46.161-80.107 97.066-88.789 133.296-6.95 29.094-3.234 32.221-3.234 32.221-0.371 3.457-2.505 6.473-5.666 7.908-3.127 1.471-6.805 1.177-9.638-0.809 0 0-11.145-2.428-29.35-20.119-41.417-40.276-73.89-120.97-42.995-212.813 59.298-176.273 2.94-172.028-14.383-170.667-22.511 1.728-65.618 24.789-49.617 106.667 21.333 64-42.667 106.667-42.667 106.667s-44.359-107.663-99.789-188.544c-32.736-47.817-48.441-108.578-48.441-164.011h-1.103c0-170.517 138.077-308.779 308.412-308.779s308.412 138.261 308.412 308.779c11.695 148.083-68.634 280.201-181.039 370.242l-0.111-0.037zM522.185 108.284c-93.939 0-170.112 76.25-170.112 170.3 0 32.034 8.864 61.973 24.202 87.573 13.204-49.284 58.115-85.551 111.486-85.551 63.74 0 115.456 51.75 115.456 115.567 0 12.173-1.916 23.945-5.41 34.94 56.021-27.878 94.494-85.7 94.494-152.567 0-94.050-76.173-170.261-170.116-170.261z" />
<glyph unicode="&#xe951;" glyph-name="crown" d="M841.702 138.816c32.529 0 54.298 23.1 54.298 51.614l42.667 412.004c0 20.885-10.991 39.713-27.814 47.682-16.849 8.022-36.198 3.593-49.088-11.172l-86.694-99.375c-17.604-20.158-46.118-20.158-63.697 0l-167.526 234.647c-17.574 20.157-46.118 20.157-63.697 0l-167.524-234.645c-17.578-20.155-46.093-20.155-63.698 0l-86.694 99.375c-12.89 14.765-32.265 19.194-49.088 11.172-16.822-7.968-27.812-26.797-27.812-47.683l42.667-412.004c0-28.514 21.848-51.614 54.375-51.614h659.328z" />
<glyph unicode="&#xe952;" glyph-name="graph" d="M85.333 104.533c0-46.080 37.12-83.2 83.2-83.2h716.8c29.44 0 53.333 23.893 53.333 53.333s-23.893 53.333-53.333 53.333h-666.88c-14.933 0-26.453 11.947-26.453 26.453v669.867c-1.707 28.16-24.747 50.347-53.333 50.347s-51.627-22.187-53.333-50.347zM347.535 334.327l148.759 136.064 95.475-87.33c20.885-19.102 54.562-19.102 75.447 0l213.12 194.937c20.885 19.104 20.885 49.904 0 69.007s-54.562 19.104-75.447 0l-175.607-160.239-95.479 87.332c-20.885 19.104-54.558 19.104-75.443 0l-186.695-170.763c-20.886-19.106-20.886-49.903 0-69.009 20.886-19.102 54.559-19.102 75.444 0h0.426z" />
<glyph unicode="&#xe953;" glyph-name="document" d="M682.667 874.667h-469.333c-46.933 0-85.333-42.667-85.333-94.815v-663.705c0-52.147 38.4-94.814 85.333-94.814h597.333c46.933 0 85.333 42.667 85.333 94.814v521.482l-213.333 237.037zM298.667 685.037h213.333v-94.815h-213.333v94.815zM725.333 210.961h-426.667v94.818h426.667v-94.818zM725.333 400.593h-426.667v94.814h426.667v-94.814zM640 590.222v189.63l170.667-189.63h-170.667z" />
<glyph unicode="&#xe954;" glyph-name="check-line" d="M826.667 67.627c0-34.56-35.038-57.6-66.718-44.16l-269.282 115.2-269.28-115.2c-31.68-13.918-66.72 9.6-66.72 44.16v695.040c0 52.8 43.2 96 96 96h336c-21.052-28.067-36.053-60.552-43.226-96h-244.774c-26.4 0-48-21.6-48-48v-576l240 104.64 240-104.64v340.809c15.509-3.153 31.565-4.809 48-4.809 16.32 0 32.64 1.442 48 4.8v-411.84zM922.667 714.667c0-26.4-21.602-48-48-48h-48v-48c0-26.4-21.602-48-48-48s-48 21.6-48 48v48h-48c-26.398 0-48 21.6-48 48s21.602 48 48 48h48v48c0 26.4 21.602 48 48 48s48-21.6 48-48v-48h48c26.398 0 48-21.6 48-48z" />
<glyph unicode="&#xe955;" glyph-name="featured-word" d="M484.134 480.772l-75.825 179.445c-4.64 11.12-15.731 18.401-27.957 18.401s-23.274-7.267-27.986-18.401l-75.827-179.445c-6.45-15.228 0.862-32.806 16.321-39.070 15.502-6.357 33.23 0.879 39.666 16.094l4.87 11.503h85.956l4.869-11.503c4.843-11.473 16.137-18.402 28.015-18.402 3.883 0 7.829 0.738 11.669 2.308 15.428 6.263 22.724 23.842 16.277 39.070h-0.047zM362.638 529.088l17.699 41.888 17.7-41.888h-35.399zM871.561 499.157c5.777 11.332 9.28 23.159 9.28 35.91 0 41.249-34.018 74.764-74.978 74.764h-61.517c-16.755 0-30.332-13.372-30.332-29.067v-179.447c0-17.365 13.564-30.737 30.332-30.737h75.827c41.805 0 75.827 33.527 75.827 73.929 0 21.628-9.515 40.981-24.452 54.647h0.013zM774.673 550.026h30.327c8.358 0 15.172-6.714 15.172-14.959s-6.797-14.957-15.172-14.957h-30.327v29.915zM820.173 430.4h-45.5v29.905h45.5c8.358 0 15.168-6.716 15.168-14.959 0-8.247-6.793-14.959-15.168-14.959v0.013zM804.087 203.494l-171.968 169.557c39.108 57.242 58.402 128.764 48.073 204.972-17.613 129.627-125.363 235.116-256.963 251.547-195.66 24.407-360.186-137.814-335.433-330.729 16.665-129.813 123.668-236.139 255.152-253.419 77.292-10.185 149.843 8.841 207.887 47.398l171.968-169.562c22.438-22.123 58.829-22.123 81.271 0 22.426 22.157 22.426 58.138 0 80.235h0.013zM198.966 537.37c0 99.979 82.493 181.315 183.893 181.315s183.895-81.337 183.895-181.315c0-99.981-82.496-181.316-183.895-181.316s-183.893 81.31-183.893 181.316v0z" />
<glyph unicode="&#xe956;" glyph-name="medal" d="M810.667 577.87c-0.021 163.93-133.726 296.775-298.667 296.797-164.985-0.022-298.644-132.867-298.667-296.797 0.022-91.508 41.752-173.309 107.262-227.764l-95.361-216.154 101.807 13.794 58.735-83.746 96.418 218.539c9.809-0.964 19.755-1.489 29.828-1.489s19.977 0.525 29.807 1.489l96.418-218.539 58.756 83.746 101.764-13.794-95.364 216.154c65.557 54.434 107.285 136.213 107.307 227.764h-0.043zM512 324.77c-70.391 0.021-133.946 28.309-180.098 74.15-46.129 45.862-74.595 108.996-74.595 178.949s28.465 133.085 74.595 178.948c46.152 45.841 109.659 74.106 180.098 74.128 70.37-0.022 133.922-28.287 180.053-74.128 46.131-45.885 74.594-108.995 74.615-178.948-0.021-69.953-28.484-133.087-74.615-178.949-46.153-45.841-109.683-74.129-180.053-74.15zM512 795.926c-121.253-0.022-219.452-97.628-219.474-218.078 0.022-120.474 98.221-218.078 219.474-218.099 121.207 0 219.43 97.626 219.452 218.099-0.021 120.45-98.244 218.057-219.452 218.078zM636.070 454.554c-31.812-31.565-75.567-51.042-124.070-51.063-48.55 0-92.259 19.499-124.091 51.063-31.787 31.612-51.365 75.093-51.387 123.316 0.022 48.224 19.6 91.66 51.387 123.292 31.809 31.567 75.54 51.044 124.091 51.066 48.503-0.022 92.237-19.499 124.070-51.066 31.765-31.61 51.362-75.090 51.383-123.292-0.021-48.223-19.618-91.683-51.383-123.316z" />
<glyph unicode="&#xe957;" glyph-name="event" d="M618.667 192c-29.867 0-55.113 10.313-75.733 30.933s-30.933 45.867-30.933 75.733c0 29.867 10.313 55.113 30.933 75.733s45.867 30.933 75.733 30.933c29.867 0 55.113-10.313 75.733-30.933s30.933-45.867 30.933-75.733c0-29.867-10.313-55.113-30.933-75.733s-45.867-30.933-75.733-30.933zM213.333 21.333c-23.467 0-43.555 8.354-60.267 25.067s-25.067 36.8-25.067 60.267v597.333c0 23.467 8.355 43.555 25.067 60.267s36.8 25.067 60.267 25.067h42.667v42.667c0 12.089 4.089 22.222 12.267 30.4s18.311 12.267 30.4 12.267c12.089 0 22.222-4.089 30.4-12.267s12.267-18.311 12.267-30.4v-42.667h341.333v42.667c0 12.089 4.087 22.222 12.267 30.4s18.313 12.267 30.4 12.267c12.087 0 22.221-4.089 30.4-12.267s12.267-18.311 12.267-30.4v-42.667h42.667c23.467 0 43.554-8.355 60.267-25.067s25.067-36.8 25.067-60.267v-597.333c0-23.467-8.354-43.554-25.067-60.267s-36.8-25.067-60.267-25.067h-597.333zM213.333 106.667h597.333v426.667h-597.333v-426.667z" />
<glyph unicode="&#xe958;" glyph-name="account_box" d="M512 405.333c41.246 0 76.446 14.579 105.6 43.733s43.733 64.354 43.733 105.6c0 41.245-14.579 76.445-43.733 105.6s-64.354 43.733-105.6 43.733c-41.246 0-76.446-14.578-105.6-43.733s-43.733-64.355-43.733-105.6c0-41.246 14.578-76.446 43.733-105.6 29.154-29.154 64.354-43.733 105.6-43.733zM213.333 64c-23.467 0-43.555 8.354-60.267 25.067s-25.067 36.8-25.067 60.267v597.333c0 23.467 8.355 43.555 25.067 60.267s36.8 25.067 60.267 25.067h597.333c23.467 0 43.554-8.355 60.267-25.067s25.067-36.8 25.067-60.267v-597.333c0-23.467-8.354-43.554-25.067-60.267s-36.8-25.067-60.267-25.067h-597.333zM213.333 149.333h597.333v49.067c-38.4 37.687-83.021 67.379-133.867 89.067s-105.779 32.533-164.8 32.533c-59.021 0-113.955-10.846-164.8-32.533s-95.467-51.379-133.867-89.067v-49.067z" />
<glyph unicode="&#xe959;" glyph-name="ichioshi" d="M409.937 178.748c0-7.872 2.317-15.552 6.741-22.114l21.892-32.115c6.707-9.843 21.931-17.852 34.027-17.852h78.775c12.062 0 27.281 8.009 33.988 17.852l21.824 32.098c3.755 5.547 6.831 15.462 6.831 22.131l0.158 49.003h-204.377l0.123-49.003h0.018zM511.236 746.667c-130.232-0.395-224.054-103.712-224.054-218.884 0-55.479 20.998-106.065 55.637-144.759 21.12-23.556 54.092-72.798 66.697-114.33 0.035-0.307 0.123-0.653 0.158-0.977h204.637c0.038 0.324 0.124 0.653 0.162 0.977 12.604 41.532 45.594 90.773 66.697 114.33 34.671 37.632 55.633 88.128 55.633 144.759 0.021 120.62-101.018 219.262-225.566 218.884zM512.013 626.667c-56.375 0-102.198-44.863-102.198-98.884 0-12.113-9.2-21.116-20.436-21.116s-20.436 9.003-20.436 19.998c0 77.201 64.188 138.885 143.070 138.885 11.285 0 20.433-8.952 20.433-20s-9.199-18.883-20.433-18.883zM201.522 534.708h-86.325c-16.486 0-29.864-13.074-29.864-29.228 0-16.149 13.361-29.227 29.864-29.227h86.325c16.486 0 29.863 13.077 29.863 29.227 0 16.154-13.36 29.228-29.863 29.228zM225.507 392.115l-74.756-42.253c-14.273-8.077-19.171-25.946-10.92-39.915s26.511-18.761 40.784-10.688l74.755 42.253c14.274 8.077 19.172 25.946 10.921 39.915s-26.511 18.761-40.784 10.688zM180.594 711.735l74.756-42.251c14.273-8.076 19.171-25.945 10.92-39.914s-26.511-18.763-40.784-10.688l-74.756 42.251c-14.273 8.076-19.171 25.945-10.92 39.914s26.511 18.763 40.784 10.688zM822.477 534.708h86.327c16.486 0 29.862-13.074 29.862-29.228 0-16.149-13.359-29.227-29.862-29.227h-86.327c-16.482 0-29.862 13.077-29.862 29.227 0 16.154 13.359 29.228 29.862 29.228zM798.494 392.115l74.756-42.253c14.276-8.077 19.174-25.946 10.923-39.915s-26.513-18.761-40.785-10.688l-74.756 42.253c-14.272 8.077-19.17 25.946-10.918 39.915s26.509 18.761 40.781 10.688zM843.388 711.735l-74.756-42.251c-14.272-8.076-19.17-25.945-10.918-39.914s26.509-18.763 40.781-10.688l74.756 42.251c14.276 8.076 19.174 25.945 10.923 39.914s-26.513 18.763-40.785 10.688z" />
<glyph unicode="&#xe95a;" glyph-name="blog-site" d="M874.667 314.667v480c0 44.183-35.831 80-80 80h-506.667c-88.367 0-160-71.633-160-160v-533.333c0-88.367 71.633-160 160-160h533.333c29.449 0 53.333 23.885 53.333 51.831 0 19.537-11.012 35.87-26.667 45.167v135.603c16.333 16.064 26.667 37.065 26.667 60.732zM366.5 661.333h319.998c16.171 0 28.169-12 28.169-26.667s-11.998-26.667-26.667-26.667h-321.5c-13.167 0-25.167 12-25.167 26.667s12 26.667 25.167 26.667zM366.5 554.667h319.998c16.171 0 28.169-12 28.169-26.667 0-14.669-11.998-26.667-26.667-26.667h-321.5c-13.167 0-25.167 11.998-25.167 26.667 0 14.667 12 26.667 25.167 26.667zM768 128h-480c-29.45 0-53.333 23.885-53.333 53.333s23.884 53.333 53.333 53.333h480v-106.667z" />
<glyph unicode="&#xe95b;" glyph-name="question" d="M512 874.667c-235.52 0-426.667-191.147-426.667-426.667s191.147-426.667 426.667-426.667c235.52 0 426.667 191.147 426.667 426.667s-191.147 426.667-426.667 426.667zM512 106.667c-188.16 0-341.333 153.173-341.333 341.333s153.173 341.333 341.333 341.333c188.16 0 341.333-153.173 341.333-341.333s-153.173-341.333-341.333-341.333zM394.546 574.862c-22.756 9.671-32.427 37.831-18.773 58.311 27.591 40.96 73.669 70.827 134.542 70.827 66.846 0 112.64-30.435 135.966-68.551 19.908-32.711 31.573-93.867 0.853-139.376-34.133-50.347-66.846-65.707-84.48-98.133-4.267-7.68-6.827-13.939-8.533-26.739-2.56-20.766-19.627-36.979-40.678-36.979-24.747 0-44.941 21.333-42.095 46.080 1.707 14.507 5.12 29.585 13.082 43.806 21.905 39.539 64 62.861 88.465 97.847 25.882 36.695 11.375 105.246-62.012 105.246-33.28 0-54.895-17.351-68.267-38.115-9.954-16.213-30.718-21.333-48.069-14.223zM567.488 220.446c0-31.292-25.6-56.892-56.887-56.892-31.292 0-56.892 25.6-56.892 56.892 0 31.287 25.6 56.887 56.892 56.887 31.287 0 56.887-25.6 56.887-56.887z" />
<glyph unicode="&#xe95c;" glyph-name="article" d="M213.333 64c-23.467 0-43.555 8.354-60.267 25.067s-25.067 36.8-25.067 60.267v597.333c0 23.467 8.355 43.555 25.067 60.267s36.8 25.067 60.267 25.067h597.333c23.467 0 43.554-8.355 60.267-25.067s25.067-36.8 25.067-60.267v-597.333c0-23.467-8.354-43.554-25.067-60.267s-36.8-25.067-60.267-25.067h-597.333zM341.333 234.667h213.333c12.087 0 22.221 4.087 30.4 12.267s12.267 18.313 12.267 30.4c0 12.087-4.087 22.221-12.267 30.4s-18.313 12.267-30.4 12.267h-213.333c-12.089 0-22.222-4.087-30.4-12.267s-12.267-18.313-12.267-30.4c0-12.087 4.089-22.221 12.267-30.4s18.311-12.267 30.4-12.267zM341.333 405.333h341.333c12.087 0 22.221 4.087 30.4 12.267s12.267 18.313 12.267 30.4c0 12.087-4.087 22.221-12.267 30.4s-18.313 12.267-30.4 12.267h-341.333c-12.089 0-22.222-4.087-30.4-12.267s-12.267-18.313-12.267-30.4c0-12.087 4.089-22.221 12.267-30.4s18.311-12.267 30.4-12.267zM341.333 576h341.333c12.087 0 22.221 4.089 30.4 12.267s12.267 18.311 12.267 30.4c0 12.089-4.087 22.222-12.267 30.4s-18.313 12.267-30.4 12.267h-341.333c-12.089 0-22.222-4.089-30.4-12.267s-12.267-18.311-12.267-30.4c0-12.089 4.089-22.222 12.267-30.4s18.311-12.267 30.4-12.267z" />
<glyph unicode="&#xe95d;" glyph-name="bell" d="M512.055 21.333c49.498 0 90.001 39.386 90.001 87.522h-180c0-48.137 40.049-87.522 89.999-87.522zM782.054 283.895v218.807c0 134.343-73.801 246.808-202.5 276.565v29.757c0 36.321-30.148 65.641-67.499 65.641s-67.499-29.32-67.499-65.641v-29.757c-129.15-29.757-202.499-141.784-202.499-276.565v-218.807l-58.049-56.448c-28.35-27.571-8.55-74.833 31.5-74.833h592.646c40.051 0 60.301 47.262 31.949 74.833l-58.048 56.448z" />
<glyph unicode="&#xe95e;" glyph-name="iine" d="M548.996 815.023l-211.938-211.939c-14.155-14.155-22.189-33.665-22.189-53.941v-382.176c0-42.082 34.431-76.514 76.512-76.514h344.306c30.605 0 58.146 18.364 70.391 46.289l124.715 291.132c32.132 75.746-23.339 159.908-105.587 159.908h-216.149l36.343 175.213c3.827 19.128-1.911 38.639-15.684 52.411-22.571 22.188-58.53 22.188-80.721-0.383zM161.845 90.453c42.082 0 76.512 34.432 76.512 76.514v306.048c0 42.082-34.431 76.511-76.512 76.511s-76.512-34.429-76.512-76.511v-306.048c0-42.082 34.43-76.514 76.512-76.514z" />
<glyph unicode="&#xe95f;" glyph-name="cross-search" d="M298.667 810.667c0 35.346 28.654 64 64 64h298.667c35.345 0 64-28.654 64-64h-426.667zM192 682.667c0 35.346 28.654 64 64 64h512c35.345 0 64-28.654 64-64h-640zM424.531 272c17.777-17.779 39.11-26.667 64.002-26.667 24.887 0 46.221 8.887 64 26.667 17.775 17.779 26.667 39.113 26.667 64s-8.892 46.221-26.667 64c-17.779 17.779-39.113 26.667-64 26.667-24.892 0-46.225-8.887-64.002-26.667s-26.667-39.113-26.667-64c0-24.887 8.889-46.221 26.667-64zM213.333 618.667h597.333c47.13 0 85.333-38.205 85.333-85.333v-426.667c0-47.13-38.204-85.333-85.333-85.333h-597.333c-47.128 0-85.333 38.204-85.333 85.333v426.667c0 47.128 38.205 85.333 85.333 85.333zM647.467 146.133c4.975-4.979 10.667-7.467 17.067-7.467s12.087 2.487 17.067 7.467c4.975 4.979 7.467 10.667 7.467 17.067s-2.492 12.087-7.467 17.067l-76.8 76.8c7.821 12.087 14.4 24.713 19.733 37.867s8 26.846 8 41.067c0 40.533-13.867 74.667-41.6 102.4s-61.867 41.6-102.4 41.6c-40.533 0-74.669-13.867-102.402-41.6s-41.6-61.867-41.6-102.4c0-40.533 13.867-74.667 41.6-102.4s61.869-41.6 102.402-41.6c15.642 0 30.4 2.667 44.267 8s27.554 11.913 41.067 19.733l73.6-73.6z" />
<glyph unicode="&#xe960;" glyph-name="navigate-before" d="M460.8 448l166.4-166.4c7.821-7.825 11.733-17.779 11.733-29.867 0-12.092-3.913-22.046-11.733-29.867-7.821-7.825-17.779-11.733-29.867-11.733s-22.046 3.908-29.867 11.733l-196.267 196.267c-4.267 4.267-7.289 8.887-9.067 13.867-1.778 4.975-2.667 10.308-2.667 16 0 5.687 0.889 11.021 2.667 16 1.777 4.975 4.8 9.6 9.067 13.867l196.267 196.265c7.821 7.822 17.779 11.733 29.867 11.733s22.046-3.911 29.867-11.733c7.821-7.822 11.733-17.778 11.733-29.867s-3.913-22.045-11.733-29.867l-166.4-166.398z" />
<glyph unicode="&#xe961;" glyph-name="groups" d="M42.667 192c-12.089 0-22.222 4.087-30.4 12.267s-12.267 18.313-12.267 30.4v24.533c0 30.579 15.644 55.467 46.933 74.667s72.533 28.8 123.733 28.8c9.245 0 18.133-0.179 26.667-0.533s16.711-1.246 24.533-2.667c-9.955-14.933-17.422-30.579-22.4-46.933s-7.467-33.421-7.467-51.2v-69.333h-149.333zM298.667 192c-12.089 0-22.222 4.087-30.4 12.267s-12.267 18.313-12.267 30.4v26.667c0 22.754 6.222 43.554 18.667 62.4s30.045 35.379 52.8 49.6c22.755 14.221 49.955 24.887 81.6 32 31.646 7.113 65.954 10.667 102.933 10.667 37.687 0 72.354-3.554 104-10.667s58.846-17.779 81.6-32c22.754-14.221 40.179-30.754 52.267-49.6s18.133-39.646 18.133-62.4v-26.667c0-12.087-4.087-22.221-12.267-30.4s-18.313-12.267-30.4-12.267h-426.667zM832 192v69.333c0 18.487-2.313 35.913-6.933 52.267s-11.554 31.646-20.8 45.867c7.821 1.421 15.821 2.313 24 2.667s16.533 0.533 25.067 0.533c51.2 0 92.446-9.421 123.733-28.267s46.933-43.913 46.933-75.2v-24.533c0-12.087-4.087-22.221-12.267-30.4s-18.313-12.267-30.4-12.267h-149.333zM170.667 405.333c-23.467 0-43.555 8.354-60.267 25.067s-25.067 36.8-25.067 60.267c0 24.179 8.355 44.445 25.067 60.8s36.8 24.533 60.267 24.533c24.178 0 44.445-8.178 60.8-24.533s24.533-36.621 24.533-60.8c0-23.467-8.178-43.554-24.533-60.267s-36.622-25.067-60.8-25.067zM853.333 405.333c-23.467 0-43.554 8.354-60.267 25.067s-25.067 36.8-25.067 60.267c0 24.179 8.354 44.445 25.067 60.8s36.8 24.533 60.267 24.533c24.179 0 44.446-8.178 60.8-24.533s24.533-36.621 24.533-60.8c0-23.467-8.179-43.554-24.533-60.267s-36.621-25.067-60.8-25.067zM512 448c-35.554 0-65.779 12.446-90.667 37.333s-37.333 55.111-37.333 90.667c0 36.267 12.445 66.667 37.333 91.2s55.113 36.8 90.667 36.8c36.267 0 66.667-12.267 91.2-36.8s36.8-54.933 36.8-91.2c0-35.555-12.267-65.779-36.8-90.667s-54.933-37.333-91.2-37.333z" />
<glyph unicode="&#xe962;" glyph-name="forum" d="M298.667 192c-12.089 0-22.222 4.087-30.4 12.267s-12.267 18.313-12.267 30.4v85.333h554.667v384h85.333c12.087 0 22.221-4.089 30.4-12.267s12.267-18.311 12.267-30.4v-536.533c0-19.2-8.713-32.533-26.133-40s-32.887-4.446-46.4 9.067l-98.133 98.133h-469.333zM256 405.333l-98.133-98.133c-13.511-13.513-28.978-16.533-46.4-9.067s-26.133 20.8-26.133 40v493.867c0 12.089 4.089 22.222 12.267 30.4s18.311 12.267 30.4 12.267h554.667c12.087 0 22.221-4.089 30.4-12.267s12.267-18.311 12.267-30.4v-384c0-12.087-4.087-22.221-12.267-30.4s-18.313-12.267-30.4-12.267h-426.667z" />
<glyph unicode="&#xe963;" glyph-name="star-half-rounded" d="M511.996 223.134c0.004-14.106 0.004 584.429 0.004 584.429-16 0.001-32.004-8.639-39.258-25.92l-80.639-189.867-206.080-17.493c-37.547-2.987-52.907-49.922-24.32-74.668l156.587-135.68-46.933-201.387c-8.533-36.693 31.147-65.707 63.573-46.080l177.066 106.667z" />
<glyph unicode="&#xe964;" glyph-name="star-rounded" d="M512 222.933l-177.067-106.667c-7.822-4.975-16-7.108-24.533-6.396-8.533 0.708-16 3.554-22.4 8.529-6.4 4.979-11.378 11.2-14.933 18.671-3.555 7.462-4.267 15.821-2.133 25.062l46.933 201.6-156.8 135.467c-7.111 6.4-11.555 13.692-13.333 21.867-1.778 8.179-1.245 16.18 1.6 24.002s7.111 14.222 12.8 19.2c5.689 4.978 13.511 8.178 23.467 9.6l206.933 18.133 80 189.867c3.554 8.533 9.067 14.933 16.533 19.2s15.113 6.4 22.933 6.4c7.821 0 15.467-2.133 22.933-6.4s12.979-10.667 16.533-19.2l80-189.867 206.933-18.133c9.954-1.422 17.779-4.622 23.467-9.6s9.954-11.378 12.8-19.2c2.846-7.822 3.379-15.823 1.6-24.002-1.779-8.175-6.221-15.467-13.333-21.867l-156.8-135.467 46.933-201.6c2.133-9.242 1.421-17.6-2.133-25.062-3.554-7.471-8.533-13.692-14.933-18.671-6.4-4.975-13.867-7.821-22.4-8.529-8.533-0.713-16.713 1.421-24.533 6.396l-177.067 106.667z" />
<glyph unicode="&#xe965;" glyph-name="content-copied" d="M384 192c-23.467 0-43.555 8.354-60.267 25.067s-25.067 36.8-25.067 60.267v512c0 23.467 8.355 43.555 25.067 60.267s36.8 25.067 60.267 25.067h384c23.467 0 43.554-8.355 60.267-25.067s25.067-36.8 25.067-60.267v-512c0-23.467-8.354-43.554-25.067-60.267s-36.8-25.067-60.267-25.067h-384zM213.333 21.333c-23.467 0-43.555 8.354-60.267 25.067s-25.067 36.8-25.067 60.267v554.667c0 12.089 4.089 22.222 12.267 30.4s18.311 12.267 30.4 12.267c12.089 0 22.222-4.089 30.4-12.267s12.267-18.311 12.267-30.4v-554.667h426.667c12.087 0 22.221-4.087 30.4-12.267s12.267-18.313 12.267-30.4c0-12.087-4.087-22.221-12.267-30.4s-18.313-12.267-30.4-12.267h-426.667z" />
<glyph unicode="&#xe966;" glyph-name="hellowork-application" d="M434.347 576c70.592 0 128 57.173 128 128s-57.408 128-128 128c-70.591 0-128-57.173-128-128s57.409-128 128-128zM578.94 186.88c0 0-71.735 251.733-72.162 252.16-15.373 46.933-73.869 94.293-159.696 94.293-57.644 0-136.212-33.707-167.382-128-0.854-2.56-93.939-340.48-93.939-340.48h350.135l-84.971 209.067c-2.135 5.973-1.708 11.947 0.427 16.64s5.978 8.96 11.529 11.093c11.102 4.267 23.485-0.853 27.755-11.947l72.588-177.92 3.418-8.533c9.822-22.187 32.879-37.973 59.354-38.4l231.002-0.853c26.901 0 50.812 20.053 53.803 46.507 2.991 27.733-17.079 53.333-46.114 56.747l-185.745 19.627zM967.979 374.613c5.978-2.133 10.671-6.827 12.804-12.373 1.711-5.547 1.284-11.947-2.133-17.067l-128.469-205.653c-5.12 19.627-15.791 36.693-31.155 49.067-1.6 1.331-3.366 2.496-5.193 3.703-1.101 0.725-2.223 1.468-3.345 2.27-1.28 0.64-2.347 1.387-3.413 2.133-1.071 0.747-2.138 1.493-3.418 2.133-1.28 0.853-3.413 2.56-3.413 2.56h-2.133c-8.964 4.267-17.929 7.253-28.169 8.533l-156.215 16.64h-1.707c-2.598 9.020-5.090 17.545-7.471 25.694-4.262 14.601-8.175 27.998-11.738 40.866l102.012 161.707c5.547 8.533 15.791 11.947 25.182 8.533l247.974-88.747z" />
<glyph unicode="&#xe967;" glyph-name="content-copy-line" d="M384 192c-23.467 0-43.555 8.354-60.267 25.067s-25.067 36.8-25.067 60.267v512c0 23.467 8.355 43.555 25.067 60.267s36.8 25.067 60.267 25.067h384c23.467 0 43.554-8.355 60.267-25.067s25.067-36.8 25.067-60.267v-512c0-23.467-8.354-43.554-25.067-60.267s-36.8-25.067-60.267-25.067h-384zM384 277.333h384v512h-384v-512zM213.333 21.333c-23.467 0-43.555 8.354-60.267 25.067s-25.067 36.8-25.067 60.267v554.667c0 12.089 4.089 22.222 12.267 30.4s18.311 12.267 30.4 12.267c12.089 0 22.222-4.089 30.4-12.267s12.267-18.311 12.267-30.4v-554.667h426.667c12.087 0 22.221-4.087 30.4-12.267s12.267-18.313 12.267-30.4c0-12.087-4.087-22.221-12.267-30.4s-18.313-12.267-30.4-12.267h-426.667z" />
<glyph unicode="&#xe968;" glyph-name="comment_left" d="M755.712 374.955c8.192 8.149 12.288 18.304 12.288 30.379s-4.096 22.229-12.288 30.421c-8.149 8.149-18.304 12.245-30.379 12.245h-426.667c-12.075 0-22.229-4.096-30.421-12.245-8.149-8.192-12.245-18.347-12.245-30.421s4.096-22.229 12.245-30.379c8.192-8.192 18.347-12.288 30.421-12.288h426.667c12.075 0 22.229 4.096 30.379 12.288zM755.712 502.955c8.192 8.149 12.288 18.304 12.288 30.379s-4.096 22.229-12.288 30.421c-8.149 8.149-18.304 12.245-30.379 12.245h-426.667c-12.075 0-22.229-4.096-30.421-12.245-8.149-8.192-12.245-18.347-12.245-30.421s4.096-22.229 12.245-30.379c8.192-8.192 18.347-12.288 30.421-12.288h426.667c12.075 0 22.229 4.096 30.379 12.288zM755.712 630.955c8.192 8.149 12.288 18.304 12.288 30.379s-4.096 22.229-12.288 30.379c-8.149 8.192-18.304 12.288-30.379 12.288h-426.667c-12.075 0-22.229-4.096-30.421-12.245-8.149-8.192-12.245-18.347-12.245-30.421s4.096-22.229 12.245-30.421c8.192-8.149 18.347-12.245 30.421-12.245h426.667c12.075 0 22.229 4.096 30.379 12.288zM256 192l-98.133-98.133c-13.525-13.525-28.971-16.555-46.421-9.088-17.408 7.509-26.112 20.821-26.112 40.021v664.533c0 23.467 8.363 43.563 25.088 60.288s36.779 25.045 60.245 25.045h682.667c23.467 0 43.563-8.363 60.288-25.045s25.045-36.821 25.045-60.288v-512c0-23.467-8.363-43.563-25.045-60.288s-36.821-25.045-60.288-25.045h-597.333z" />
<glyph unicode="&#xe969;" glyph-name="edit" d="M128 215.036v-129.707c0-11.947 9.387-21.333 21.333-21.333h129.707c5.547 0 11.093 2.133 14.933 6.4l465.92 465.495-160 160-465.493-465.495c-4.267-4.267-6.4-9.387-6.4-15.36zM883.627 659.624c16.64 16.64 16.64 43.52 0 60.16l-99.84 99.84c-16.64 16.64-43.52 16.64-60.16 0l-78.080-78.080 160-160 78.080 78.080z" />
<glyph unicode="&#xe96a;" glyph-name="visibility-off-fill" d="M814.933 25.596l-149.333 147.2c-24.887-7.821-50.133-13.687-75.733-17.6s-51.554-5.867-77.867-5.867c-95.289 0-182.4 25.6-261.333 76.8s-140.8 118.754-185.6 202.667c-3.555 6.4-6.222 12.979-8 19.733s-2.667 13.687-2.667 20.8c0 7.113 0.889 14.046 2.667 20.8s4.445 13.333 8 19.733c15.645 27.733 32.355 54.756 50.133 81.067s38.4 49.778 61.867 70.4l-88.533 89.6c-7.822 7.823-11.733 17.6-11.733 29.333s4.267 21.867 12.8 30.4c7.822 7.823 17.778 11.733 29.867 11.733s22.045-3.911 29.867-11.733l725.333-725.333c7.821-7.821 11.913-17.6 12.267-29.333s-3.733-21.867-12.267-30.4c-7.821-7.821-17.779-11.733-29.867-11.733s-22.046 3.913-29.867 11.733zM512 277.329c7.821 0 15.287 0.354 22.4 1.067s14.221 2.133 21.333 4.267l-230.4 230.4c-2.133-7.113-3.555-14.221-4.267-21.333s-1.067-14.579-1.067-22.4c0-53.333 18.667-98.667 56-136s82.667-56 136-56zM512 789.329c95.287 0 182.579-25.777 261.867-77.333s141.333-119.289 186.133-203.2c3.554-5.687 6.221-11.913 8-18.667s2.667-13.687 2.667-20.8c0-7.113-0.713-14.046-2.133-20.8s-3.913-12.979-7.467-18.667c-13.513-26.313-28.621-51.2-45.333-74.667s-35.379-45.513-56-66.133c-9.954-9.954-21.687-14.579-35.2-13.867s-25.246 6.046-35.2 16l-85.333 85.333c-4.979 4.979-8.179 10.846-9.6 17.6s-1.067 13.687 1.067 20.8c2.846 9.246 4.979 18.133 6.4 26.667s2.133 17.779 2.133 27.733c0 53.333-18.667 98.667-56 136s-82.667 56-136 56c-9.954 0-19.2-0.711-27.733-2.133s-17.421-3.555-26.667-6.4c-7.113-2.133-14.221-2.489-21.333-1.067s-13.155 4.623-18.133 9.6l-35.2 35.2c-13.511 13.511-17.955 29.156-13.333 46.933s15.823 29.156 33.6 34.133c17.778 3.556 35.733 6.4 53.867 8.533s36.446 3.2 54.933 3.2zM596.267 548.262c7.821-9.244 14.4-19.379 19.733-30.4s8.713-22.579 10.133-34.667c0.713-5.687-1.421-9.6-6.4-11.733s-9.6-1.067-13.867 3.2l-87.467 87.467c-4.267 4.267-5.154 8.889-2.667 13.867s6.579 7.467 12.267 7.467c13.513-1.422 25.954-5.155 37.333-11.2s21.687-14.044 30.933-24z" />
<glyph unicode="&#xe96b;" glyph-name="yahoo-japan-icon-256" horiz-adv-x="1820" d="M56.889 874.667c218.24 0 436.48 0 661.333 0-7.111-49.778-7.111-49.778-21.333-64-17.934-2.92-17.934-2.92-40.278-4.5-11.962-0.894-11.962-0.894-24.167-1.806-8.36-0.559-16.72-1.118-25.333-1.694-8.415-0.614-16.83-1.228-25.5-1.861-20.83-1.512-41.662-2.963-62.5-4.361 23.090-43.361 51.293-81.212 81.333-120 7.505-9.763 7.505-9.763 15.161-19.724 10.255-13.34 20.52-26.672 30.797-39.995 13.961-18.133 27.853-36.317 41.708-54.531 4.121-5.414 8.242-10.828 12.488-16.406 7.655-10.060 15.307-20.122 22.955-30.187 21.273-27.87 43.142-55.047 65.78-81.823 5.766 4.904 11.532 9.808 17.472 14.861 7.952 6.752 15.906 13.502 23.861 20.25 4.202 3.566 8.405 7.132 12.734 10.806 25.721 21.767 51.69 43.166 77.932 64.306 29.1 23.751 57.452 48.173 85.333 73.333 5.473 4.868 5.473 4.868 11.057 9.833 18.615 17.012 32.523 31.871 41.832 55.5-6.861 0.522-6.861 0.522-13.861 1.056-52.705 4.361-104.626 11.733-156.806 20.278-2.347 23.467-4.693 46.933-7.111 71.111 187.733 0 375.467 0 568.889 0-20.143-50.357-20.143-50.357-42.667-71.111-24.543-8.328-49.623-12.434-75.111-16.889-62.627-12.702-109.254-27.681-159.556-68.444-7.819-5.964-15.653-11.907-23.5-17.833-57.838-44.137-113.52-90.985-168.5-138.611-6.545-5.656-13.090-11.312-19.833-17.139-17.451-15.368-34.659-30.592-51.278-46.861-4.252-3.324-8.503-6.648-12.884-10.073-29.986-27.007-39.728-49.892-42.685-90.422-1.074-28.149-1.081-56.23-0.875-84.394-0.093-11.732-0.209-23.463-0.347-35.194-0.33-28.578-0.203-57.102-0.097-85.694 63.36-4.693 126.72-9.387 192-14.222 0-49.778 0-49.778-7.111-71.111-302.72-3.52-302.72-3.52-611.556-7.111 0 56.889 0 56.889 7.111 71.111 19.373 3.052 38.281 5.351 57.778 7.111 39.325 3.661 75.183 9.332 112.889 21.333 20.71 70.223 27.638 198.233-4.417 265.333-15.961 22.761-33.053 41.909-52.472 61.778-9.998 12.379-19.61 25.005-29.226 37.682-15.94 20.938-32.49 41.381-48.997 61.873-5.344 6.655-10.688 13.31-16.194 20.167-40.148 49.513-81.529 97.95-123.257 146.132-8.988 10.441-17.858 20.982-26.715 31.535-7.288 8.552-7.288 8.552-14.722 17.278-6.146 7.315-6.146 7.315-12.417 14.778-33.857 31.163-80.295 31.592-124.028 37.222-13.428 1.769-26.854 3.556-40.278 5.361-5.918 0.766-11.836 1.532-17.934 2.321-15.566 2.54-15.566 2.54-36.899 9.651 0 21.12 0 42.24 0 64zM1514.667 796.444c37.416-7.947 74.143-16.668 110.694-28.056 8.135-2.521 16.271-5.042 24.653-7.639 8.282-2.594 16.564-5.188 25.097-7.861 8.53-2.649 17.059-5.298 25.847-8.028 20.873-6.486 41.738-12.996 62.597-19.528-3.923-24.146-9.333-42.126-22.222-62.889-3.204-5.239-6.408-10.478-9.708-15.875-3.543-5.688-7.086-11.376-10.736-17.236-7.79-12.734-15.567-25.475-23.333-38.222-4.235-6.939-8.47-13.878-12.833-21.028-22.484-37.213-44.369-74.773-66.283-112.322-50.547-86.603-101.694-172.823-153.55-258.65-43.131 4.706-80.116 13.792-120.889 28.444 17.104 64.888 36.475 129.033 56.083 193.194 3.319 10.889 6.636 21.778 9.953 32.667 8.652 28.398 17.318 56.793 25.987 85.186 8.876 29.079 17.738 58.162 26.602 87.244 17.335 56.87 34.683 113.735 52.042 170.597zM1280 142.222c33.964-4.235 65.865-10.672 98.667-20.444 12.072-3.492 12.072-3.492 24.389-7.056 9.488-3.988 9.488-3.988 19.167-8.056 9.568-28.704-0.566-45.614-12-72-2.743-6.889-2.743-6.889-5.542-13.917-14.276-33.463-14.276-33.463-31.198-40.297-16.99-1.989-27.876-0.027-44.233 4.797-5.33 1.563-10.661 3.126-16.153 4.736-8.243 2.537-8.243 2.537-16.653 5.125-5.578 1.609-11.156 3.218-16.903 4.875-14.222 4.265-28.239 9.204-42.208 14.236-2.347 4.693-4.693 9.387-7.111 14.222 7.633 19.675 15.663 38.627 24.444 57.778 2.406 5.362 4.812 10.725 7.292 16.25 5.964 13.272 11.997 26.514 18.042 39.75z" />
<glyph unicode="&#xe96c;" glyph-name="release-alert-fill" d="M347.734 32l-61.867 104.533-117.333 25.6c-10.667 2.133-19.2 7.646-25.6 16.533s-8.889 18.667-7.467 29.333l11.733 120.533-80 91.733c-7.111 7.821-10.667 17.067-10.667 27.733s3.556 19.913 10.667 27.733l80 91.733-11.733 120.533c-1.422 10.667 1.067 20.445 7.467 29.333s14.933 14.4 25.6 16.533l117.333 25.6 61.867 104.533c5.689 9.245 13.511 15.467 23.467 18.667s19.911 2.667 29.867-1.6l110.933-46.933 110.933 46.933c9.954 4.267 19.913 4.8 29.867 1.6s17.779-9.422 23.467-18.667l61.867-104.533 117.333-25.6c10.667-2.133 19.2-7.644 25.6-16.533s8.887-18.667 7.467-29.333l-11.733-120.533 80-91.733c7.113-7.821 10.667-17.067 10.667-27.733s-3.554-19.913-10.667-27.733l-80-91.733 11.733-120.533c1.421-10.667-1.067-20.446-7.467-29.333s-14.933-14.4-25.6-16.533l-117.333-25.6-61.867-104.533c-5.687-9.246-13.513-15.467-23.467-18.667s-19.913-2.667-29.867 1.6l-110.933 46.933-110.933-46.933c-9.955-4.267-19.911-4.8-29.867-1.6s-17.777 9.421-23.467 18.667zM512 234.667c12.087 0 22.221 4.087 30.4 12.267s12.267 18.313 12.267 30.4c0 12.087-4.087 22.221-12.267 30.4s-18.313 12.267-30.4 12.267c-12.087 0-22.221-4.087-30.4-12.267s-12.267-18.313-12.267-30.4c0-12.087 4.087-22.221 12.267-30.4s18.313-12.267 30.4-12.267zM512 405.333c12.087 0 22.221 4.087 30.4 12.267s12.267 18.313 12.267 30.4v170.667c0 12.089-4.087 22.223-12.267 30.4s-18.313 12.267-30.4 12.267c-12.087 0-22.221-4.089-30.4-12.267s-12.267-18.311-12.267-30.4v-170.667c0-12.087 4.087-22.221 12.267-30.4s18.313-12.267 30.4-12.267z" />
<glyph unicode="&#xe96d;" glyph-name="warning-fill" d="M116.267 64c-7.822 0-14.933 1.954-21.333 5.867s-11.377 9.067-14.933 15.467c-3.555 6.4-5.511 13.333-5.867 20.8s1.6 14.754 5.867 21.867l394.667 682.667c4.267 7.111 9.779 12.445 16.533 16s13.687 5.333 20.8 5.333c7.113 0 14.046-1.778 20.8-5.333s12.267-8.889 16.533-16l394.667-682.667c4.267-7.113 6.221-14.4 5.867-21.867s-2.313-14.4-5.867-20.8c-3.554-6.4-8.533-11.554-14.933-15.467s-13.513-5.867-21.333-5.867h-791.467zM512 192c12.087 0 22.221 4.087 30.4 12.267s12.267 18.313 12.267 30.4c0 12.087-4.087 22.221-12.267 30.4s-18.313 12.267-30.4 12.267c-12.087 0-22.221-4.087-30.4-12.267s-12.267-18.313-12.267-30.4c0-12.087 4.087-22.221 12.267-30.4s18.313-12.267 30.4-12.267zM512 320c12.087 0 22.221 4.087 30.4 12.267s12.267 18.313 12.267 30.4v128c0 12.087-4.087 22.221-12.267 30.4s-18.313 12.267-30.4 12.267c-12.087 0-22.221-4.087-30.4-12.267s-12.267-18.313-12.267-30.4v-128c0-12.087 4.087-22.221 12.267-30.4s18.313-12.267 30.4-12.267z" />
<glyph unicode="&#xe972;" glyph-name="visibility-fill" d="M512 277.333c53.333 0 98.667 18.667 136 56s56 82.667 56 136c0 53.333-18.667 98.667-56 136s-82.667 56-136 56c-53.333 0-98.667-18.667-136-56s-56-82.667-56-136c0-53.333 18.667-98.667 56-136s82.667-56 136-56zM512 354.133c-32 0-59.2 11.2-81.6 33.6s-33.6 49.6-33.6 81.6c0 32 11.2 59.2 33.6 81.6s49.6 33.6 81.6 33.6c32 0 59.2-11.2 81.6-33.6s33.6-49.6 33.6-81.6c0-32-11.2-59.2-33.6-81.6s-49.6-33.6-81.6-33.6zM512 149.333c-95.289 0-182.222 25.6-260.8 76.8s-140.622 118.754-186.133 202.667c-3.555 6.4-6.222 12.979-8 19.733s-2.667 13.687-2.667 20.8c0 7.113 0.889 14.046 2.667 20.8s4.445 13.333 8 19.733c45.511 83.911 107.556 151.467 186.133 202.667s165.511 76.8 260.8 76.8c95.287 0 182.221-25.6 260.8-76.8s140.621-118.755 186.133-202.667c3.554-6.4 6.221-12.979 8-19.733s2.667-13.687 2.667-20.8c0-7.113-0.887-14.046-2.667-20.8s-4.446-13.333-8-19.733c-45.513-83.913-107.554-151.467-186.133-202.667s-165.513-76.8-260.8-76.8z" />
</font>
</defs>
</svg>
